aheron

Гуру
VIP
Сообщения
15,712
Реакции
18,823



Би Би Кинг (B.B. King; настоящее имя Райли Би Кинг, англ. Riley B. King; родился 16 сентября 1925 недалеко от города Итта-Бена, Миссисипи, США — 14 мая 2015) американский блюзовый гитарист, певец, автор песен, которого поклонники именуют королём блюза.
По мнению одного из критиков, «Би Би Кинг представил нам утонченный стиль гитарного соло, основанный на плавном бендинге и блестящем вибрато, повлиявший практически на каждого последователя электрогитарного блюза». Одной из его наиболее знаменитых композиций является «The Thrill Is Gone» (1969).
Шумное одобрение критиков и широкая известность принесли ему славу наиболее уважаемого, успешного, узнаваемого блюзмена не только в США, но и по всему миру. По результатам проведенного в 2011 году журналом Rolling Stone опроса Би Би Кинг находится на 6 месте в списке «100 лучших гитаристов всех времён».
 
Последнее редактирование:

aheron

Гуру
VIP
Сообщения
15,712
Реакции
18,823
B.B. King - Completely Well (1969) [SHM-CD] (2012)





Performer: B.B. King
Album: Completely Well
Label: Universal Music. Made in Japan.
Catalog #: UICY-94841
Style: Blues
Year: (1969) 2012
Format: FLAC (image + .cue)
Bitrate: lossless
Covers: in archive
Amount of tracks: 10
Size Zip: 534 mb

Exact Audio Copy V1.0 beta 3 from 29. August 2011

EAC extraction logfile from 29. January 2013, 21:47

B.B. King / Completely Well

Used drive : PLEXTOR BD-R PX-B950SA Adapter: 6 ID: 0

Read mode : Secure
Utilize accurate stream : Yes
Defeat audio cache : Yes
Make use of C2 pointers : No

Read offset correction : 6
Overread into Lead-In and Lead-Out : No
Fill up missing offset samples with silence : Yes
Delete leading and trailing silent blocks : No
Null samples used in CRC calculations : Yes
Used interface : Native Win32 interface for Win NT & 2000

Used output format : Internal WAV Routines
Sample format : 44.100 Hz; 16 Bit; Stereo


TOC of the extracted CD

Track | Start | Length | Start sector | End sector
---------------------------------------------------------
1 | 0:00.00 | 5:37.43 | 0 | 25317
2 | 5:37.43 | 4:37.59 | 25318 | 46151
3 | 10:15.27 | 4:55.26 | 46152 | 68302
4 | 15:10.53 | 4:43.43 | 68303 | 89570
5 | 19:54.21 | 4:56.47 | 89571 | 111817
6 | 24:50.68 | 3:20.72 | 111818 | 126889
7 | 28:11.65 | 6:23.32 | 126890 | 155646
8 | 34:35.22 | 10:04.34 | 155647 | 200980
9 | 44:39.56 | 5:26.49 | 200981 | 225479
10 | 50:06.30 | 2:38.36 | 225480 | 237365


Range status and errors

Selected range

Filename C:\Users\Meijin\Desktop\Lossless Galaxy Rip by ALLexxess\BB King\1969 Completely Well (Universal Japan Mini LP SHM-CD 24bit Remaster 2012)\B.B. King - Completely Well.wav

Peak level 100.0 %
Extraction speed 7.2 X
Range quality 100.0 %
Test CRC 6456B6DC
Copy CRC 6456B6DC
Copy OK

No errors occurred


AccurateRip summary

Track 1 not present in database
Track 2 not present in database
Track 3 not present in database
Track 4 not present in database
Track 5 not present in database
Track 6 not present in database
Track 7 not present in database
Track 8 not present in database
Track 9 not present in database
Track 10 not present in database

None of the tracks are present in the AccurateRip database

End of status report

==== Log checksum 7595E96390837686A1D48596D8455922FEB4244FCC6C61CE63E181B5B9A6E44A ====
AUDIOCHECKER v2.0 beta (build 457) - by Dester - [email protected]
~~~~~~~~~~~~~~~~~~~~~~~~~~~~~~~~~~
-=== НЕ РЕДАКТИРУЙТЕ ЭТОТ ФАЙЛ! ===-

Путь: ...\B.B. King - Completely Well (1969) [SHM-CD] (2012)

1 -=- B.B. King - Completely Well.flac -=- CDDA (100%)

36917124


B.B. King - Completely Well (10 / 52:44)
-----------------------------------------
01. B.B. King - So Excited [05:37]
02. B.B. King - No Good [04:37]
03. B.B. King - You're Losin' Me [04:55]
04. B.B. King - What Happened [04:43]
05. B.B. King - Confessin' The Blues [04:56]
06. B.B. King - Key To My Kingdom [03:20]
07. B.B. King - Cryin' Won't Help You Now [06:23]
08. B.B. King - You're Mean [10:04]
09. B.B. King - The Thrill Is Gone [05:26]
10. B.B. King - Fools Get Wise / Bonus Track [02:38]
 
Последнее редактирование модератором:

aheron

Гуру
VIP
Сообщения
15,712
Реакции
18,823
B.B. King - Indianola Mississippi Seeds (1970) [SHM-CD] (2012)





Performer: B.B. King
Album: Indianola Mississippi Seeds
Label: Universal Music. Made in Japan.
Catalog #: UICY-94842
Style: Blues
Year: (1970) 2012
Format: FLAC (image + .cue)
Bitrate: lossless
Covers: in archive
Amount of tracks: 09
Size Zip: 411 mb

Exact Audio Copy V1.0 beta 3 from 29. August 2011

EAC extraction logfile from 29. January 2013, 21:14

B.B. King / Indianola Mississippi Seeds

Used drive : PLEXTOR BD-R PX-B950SA Adapter: 6 ID: 0

Read mode : Secure
Utilize accurate stream : Yes
Defeat audio cache : Yes
Make use of C2 pointers : No

Read offset correction : 6
Overread into Lead-In and Lead-Out : No
Fill up missing offset samples with silence : Yes
Delete leading and trailing silent blocks : No
Null samples used in CRC calculations : Yes
Used interface : Native Win32 interface for Win NT & 2000

Used output format : Internal WAV Routines
Sample format : 44.100 Hz; 16 Bit; Stereo


TOC of the extracted CD

Track | Start | Length | Start sector | End sector
---------------------------------------------------------
1 | 0:00.00 | 1:27.11 | 0 | 6535
2 | 1:27.11 | 6:03.44 | 6536 | 33804
3 | 7:30.55 | 3:07.72 | 33805 | 47901
4 | 10:38.52 | 4:44.25 | 47902 | 69226
5 | 15:23.02 | 5:11.74 | 69227 | 92625
6 | 20:35.01 | 5:19.64 | 92626 | 116614
7 | 25:54.65 | 4:53.38 | 116615 | 138627
8 | 30:48.28 | 4:02.64 | 138628 | 156841
9 | 34:51.17 | 4:37.57 | 156842 | 177673


Range status and errors

Selected range

Filename C:\Users\Meijin\Desktop\Lossless Galaxy Rip by ALLexxess\BB King\1970 Indianola Mississippi Seeds (Universal Japan Mini LP SHM-CD 24bit Remaster 2012)\B.B. King - Indianola Mississippi Seeds.wav

Peak level 100.0 %
Extraction speed 6.7 X
Range quality 100.0 %
Test CRC 0D2377D8
Copy CRC 0D2377D8
Copy OK

No errors occurred


AccurateRip summary

Track 1 not present in database
Track 2 not present in database
Track 3 not present in database
Track 4 not present in database
Track 5 not present in database
Track 6 not present in database
Track 7 not present in database
Track 8 not present in database
Track 9 not present in database

None of the tracks are present in the AccurateRip database

End of status report

==== Log checksum CB6E14439178EE5CDCEDBC34ABBC5E5B4718B88935A0A5BE92724C745C48FD50 ====
AUDIOCHECKER v2.0 beta (build 457) - by Dester - [email protected]
~~~~~~~~~~~~~~~~~~~~~~~~~~~~~~~~~~
-=== НЕ РЕДАКТИРУЙТЕ ЭТОТ ФАЙЛ! ===-

Путь: ...\B.B. King - Indianola Mississippi Seeds (1970) [SHM-CD] (2012)

1 -=- B.B. King - Indianola Mississippi Seeds.flac -=- CDDA (99%)

129234260


B.B. King - Indianola Mississippi Seeds (9 / 39:28)
-------------------------------------------------------
01. B.B. King - Nobody Loves Me But My Mother [01:27]
02. B.B. King - You're Still My Woman [06:03]
03. B.B. King - Ask Me No Questions [03:07]
04. B.B. King - Until' I'm Dead And Cold [04:44]
05. B.B. King - King's Special [05:11]
06. B.B. King - Ain't Gonna Worry My Life Anymore [05:19]
07. B.B. King - Chains And Things [04:53]
08. B.B. King - Go Underground [04:02]
09. B.B. King - Hummingbird [04:37]
 
Последнее редактирование модератором:

aheron

Гуру
VIP
Сообщения
15,712
Реакции
18,823
B.B. King - In London (1971) [SHM-CD] (2012)





Performer: B.B. King
Album: In London
Label: Universal Music. Made in Japan.
Catalog #: UICY-94843
Style: Blues
Year: (1971) 2012
Format: FLAC (image + .cue)
Bitrate: lossless
Covers: in archive
Amount of tracks: 10
Size Zip: 399 mb

Exact Audio Copy V1.0 beta 3 from 29. August 2011

EAC extraction logfile from 29. January 2013, 20:49

B.B. King / In London

Used drive : PLEXTOR BD-R PX-B950SA Adapter: 6 ID: 0

Read mode : Secure
Utilize accurate stream : Yes
Defeat audio cache : Yes
Make use of C2 pointers : No

Read offset correction : 6
Overread into Lead-In and Lead-Out : No
Fill up missing offset samples with silence : Yes
Delete leading and trailing silent blocks : No
Null samples used in CRC calculations : Yes
Used interface : Native Win32 interface for Win NT & 2000

Used output format : Internal WAV Routines
Sample format : 44.100 Hz; 16 Bit; Stereo


TOC of the extracted CD

Track | Start | Length | Start sector | End sector
---------------------------------------------------------
1 | 0:00.00 | 3:59.23 | 0 | 17947
2 | 3:59.23 | 5:09.26 | 17948 | 41148
3 | 9:08.49 | 3:29.34 | 41149 | 56857
4 | 12:38.08 | 4:48.32 | 56858 | 78489
5 | 17:26.40 | 5:14.67 | 78490 | 102106
6 | 22:41.32 | 2:28.09 | 102107 | 113215
7 | 25:09.41 | 3:15.56 | 113216 | 127896
8 | 28:25.22 | 2:21.14 | 127897 | 138485
9 | 30:46.36 | 3:16.68 | 138486 | 153253
10 | 34:03.29 | 3:51.20 | 153254 | 170598


Range status and errors

Selected range

Filename C:\Users\Meijin\Desktop\Lossless Galaxy Rip by ALLexxess\BB King\1971 In London (Universal Japan Mini LP SHM-CD 24bit Remaster 2012)\B.B. King - In London.wav

Peak level 100.0 %
Extraction speed 6.6 X
Range quality 100.0 %
Test CRC A78602B8
Copy CRC A78602B8
Copy OK

No errors occurred


AccurateRip summary

Track 1 not present in database
Track 2 not present in database
Track 3 not present in database
Track 4 not present in database
Track 5 not present in database
Track 6 not present in database
Track 7 not present in database
Track 8 not present in database
Track 9 not present in database
Track 10 not present in database

None of the tracks are present in the AccurateRip database

End of status report

==== Log checksum E058E9DF069361A073759A13EAFA5D26FBB7B975EF2D80C61897CBFFAD28E896 ====
AUDIOCHECKER v2.0 beta (build 457) - by Dester - [email protected]
~~~~~~~~~~~~~~~~~~~~~~~~~~~~~~~~~~
-=== НЕ РЕДАКТИРУЙТЕ ЭТОТ ФАЙЛ! ===-

Путь: ...\B.B. King - In London (1971) [SHM-CD] (2012)

1 -=- B.B. King - In London.flac -=- CDDA (100%)

73570308


B.B. King - In London (1971) [SHM-CD] (2012)
10 / 00:00:37:54 / 212,97 MB
==============================
B.B. King - In London (10 / 37:54)
----------------------------------------
01. B.B. King - Caldonia [03:59]
02. B.B. King - Blue Shadows [05:09]
03. B.B. King - Alexis' Boogie [03:29]
04. B.B. King - We Can't Agree [04:48]
05. B.B. King - Ghetto Woman [05:14]
06. B.B. King - Wet Hayshark [02:28]
07. B.B. King - Part-Time Love [03:15]
08. B.B. King - Power Of The Blues [02:21]
09. B.B. King - Ain't Nobody Home [03:16]
10. B.B. King - May I Have A Talk With You / Bonus Track [03:51]
 
Последнее редактирование модератором:

aheron

Гуру
VIP
Сообщения
15,712
Реакции
18,823
B.B. King - A Christmas Celebration Of Hope (2001)



Performer: B.B. King
Album: A Christmas Celebration Of Hope
Label: Atlantic. Made in EC.
Catalog #: 41342215
Style: Blues
Year: 2001
Format: FLAC (image + .cue)
Bitrate: lossless
Covers: in archuve
Amount of tracks: 13
Size ZIP: ~ 357 mb

Exact Audio Copy V1.0 beta 3 from 29. August 2011

Отчёт EAC об извлечении, выполненном 14. января 2014, 21:42

B.B. King / A Christmas Celebration Of Hope

Дисковод: PIONEER DVD-RW DVR-118L Adapter: 0 ID: 0

Режим чтения : Достоверность
Использование точного потока : Да
Отключение кэша аудио : Да
Использование указателей C2 : Нет

Коррекция смещения при чтении : 6
Способность читать области Lead-in и Lead-out : Нет
Заполнение пропущенных сэмплов тишиной : Да
Удаление блоков с тишиной в начале и конце : Нет
При вычислениях CRC использовались нулевые сэмплы : Да
Интерфейс : Установленный внешний ASPI-интерфейс

Выходной формат : Внутренние WAV-операции
Формат сэмплов : 44.100 Гц; 16 бит; стерео


TOC извлечённого CD

Трек | Старт | Длительность | Начальный сектор | Конечный сектор
---------------------------------------------------------------------
1 | 0:00.00 | 4:53.63 | 0 | 22037
2 | 4:53.63 | 3:04.44 | 22038 | 35881
3 | 7:58.32 | 3:26.43 | 35882 | 51374
4 | 11:25.00 | 4:49.50 | 51375 | 73099
5 | 16:14.50 | 3:47.30 | 73100 | 90154
6 | 20:02.05 | 5:01.18 | 90155 | 112747
7 | 25:03.23 | 3:38.40 | 112748 | 129137
8 | 28:41.63 | 3:56.25 | 129138 | 146862
9 | 32:38.13 | 2:57.27 | 146863 | 160164
10 | 35:35.40 | 3:27.15 | 160165 | 175704
11 | 39:02.55 | 4:15.73 | 175705 | 194902
12 | 43:18.53 | 2:41.65 | 194903 | 207042
13 | 46:00.43 | 2:21.30 | 207043 | 217647


Характеристики диапазона извлечения и сообщения об ошибках

Выбранный диапазон

Имя файла D:\music\Rip by moote\B.B. King - A Christmas Celebration Of Hope.wav

Пиковый уровень 96.5 %
Скорость извлечения 1.9 X
Качество диапазона 100.0 %
CRC теста 9DFC185E
CRC копии 9DFC185E
Копирование... OK

Ошибок не произошло


AccurateRip: сводка

Трек 1 точность не определена (достоверность 6) [070A2A9A], AccurateRip вернул [168495FD] (AR v2)
Трек 2 точность не определена (достоверность 12) [A3430FC1], AccurateRip вернул [C7FCC23D] (AR v2)
Трек 3 точность не определена (достоверность 12) [60E04757], AccurateRip вернул [1796298D] (AR v2)
Трек 4 точность не определена (достоверность 12) [0FB704AE], AccurateRip вернул [560BCF08] (AR v2)
Трек 5 точность не определена (достоверность 12) [A4090EF0], AccurateRip вернул [19657EA5] (AR v2)
Трек 6 точность не определена (достоверность 12) [C3B0E659], AccurateRip вернул [F04EABDF] (AR v2)
Трек 7 точность не определена (достоверность 6) [32515EBE], AccurateRip вернул [DB074EB9] (AR v2)
Трек 8 точность не определена (достоверность 12) [2749A649], AccurateRip вернул [18418E03] (AR v2)
Трек 9 точность не определена (достоверность 12) [67955853], AccurateRip вернул [C80447D5] (AR v2)
Трек 10 точность не определена (достоверность 12) [24D0B853], AccurateRip вернул [1452D91F] (AR v2)
Трек 11 точность не определена (достоверность 12) [566A13A6], AccurateRip вернул [E96F5CBA] (AR v2)
Трек 12 точность не определена (достоверность 12) [93A21EA2], AccurateRip вернул [C10F1CF3] (AR v2)
Трек 13 точность не определена (достоверность 6) [72FDFD85], AccurateRip вернул [4FE87EE4] (AR v2)

Ни один трек не прошёл проверки на точность
В вашей базе может быть иной вариант штамповки диска

Конец отчёта

==== Контрольная сумма отчёта B3E9B81B803D3F2365127C41D4E497AF2DBFD515590DE515DBCDC85EA1EC39E1 ====
-----------------------

DON'T MODIFY THIS FILE

-----------------------

PERFORMER: auCDtect Task Manager, ver. 1.6.0 RC1 build 1.6.0.1
Copyright (c) 2008-2010 y-soft. All rights reserved


ANALYZER: auCDtect: CD records authenticity detector, version 0.8.2
Copyright (c) 2004 Oleg Berngardt. All rights reserved.
Copyright (c) 2004 Alexander Djourik. All rights reserved.


FILE: B.B. King - A Christmas Celebration Of Hope.flac
Size: 321584165 Hash: 24419DFD470EC4806BEC0771B89D272E Accuracy: -m0
Conclusion: CDDA 100%
Signature: 78E91114183F8E5045E9C8A8E1CD73B2A122E798
foobar2000 1.3 / Dynamic Range Meter 1.1.1
log date: 2014-01-22 01:30:44

--------------------------------------------------------------------------------
Analyzed: B.B. King / A Christmas Celebration Of Hope
--------------------------------------------------------------------------------

DR Peak RMS Duration Track
--------------------------------------------------------------------------------
DR8 -0.31 dB -10.00 dB 4:54 01-Please Come Home For Christmas
DR8 -0.31 dB -9.35 dB 3:05 02-Lonesome Christmas
DR8 -0.31 dB -9.26 dB 3:27 03-Back Door Santa
DR8 -0.31 dB -10.13 dB 4:50 04-Christmas In Heaven
DR8 -0.31 dB -9.70 dB 3:47 05-I'll Be Home For Christmas
DR7 -0.31 dB -9.38 dB 5:01 06-To Someone That I Love
DR8 -0.31 dB -9.02 dB 3:39 07-Christmas Celebration
DR7 -0.31 dB -8.06 dB 3:56 08-Merry Christmas Baby
DR8 -0.31 dB -9.18 dB 2:57 09-Christmas Love
DR8 -0.31 dB -9.60 dB 3:27 10-Blue Decorations
DR8 -0.31 dB -9.04 dB 4:16 11-Christmas Comes But Once A Year
DR7 -0.41 dB -8.46 dB 2:42 12-Bringing In A Brand New Year
DR7 -0.31 dB -7.98 dB 2:21 13-Auld Lang Syne
--------------------------------------------------------------------------------

Number of tracks: 13
Official DR value: DR8

Samplerate: 44100 Hz
Channels: 2
Bits per sample: 16
Bitrate: 886 kbps
Codec: FLAC
================================================================================


01. B.B. King - Please Come Home For Christmas [4:54]
02. B.B. King - Lonesome Christmas [3:05]
03. B.B. King - Back Door Santa [3:27]
04. B.B. King - Christmas In Heaven [4:50]
05. B.B. King - I'll Be Home For Christmas [3:47]
06. B.B. King - To Someone That I Love [5:01]
07. B.B. King - Christmas Celebration [3:39]
08. B.B. King - Merry Christmas Baby [3:56]
09. B.B. King - Christmas Love [2:57]
10. B.B. King - Blue Decorations [3:27]
11. B.B. King - Christmas Comes But Once A Year [4:16]
12. B.B. King - Bringing In A Brand New Year [2:42]
13. B.B. King - Auld Lang Syne [2:21]
--------------------------
Total time: [48:22]

Notes:
=======================
Barcode: 4109466352082
Matrix: 41342215
 
Последнее редактирование модератором:

aheron

Гуру
VIP
Сообщения
15,712
Реакции
18,823
B.B. King - Greatest Hits (1998)





Performer: B.B. King
Album: Greatest Hits
Label: MCA Records/Universal Music. Made in US.
Catalog #: MCAD-11746
Style: Blues, Electric Blues
Year: 1998
Format: FLAC (image + .cue)
Bitrate: lossless
Covers: in archive
Amount of tracks: 16
Size ZIP: ~ 541 mb

Exact Audio Copy V1.0 beta 3 from 29. August 2011

Отчёт EAC об извлечении, выполненном 20. ноября 2012, 22:35

B.B. King / Greatest Hits

Дисковод: HL-DT-STDVDRAM GT20N Adapter: 0 ID: 1

Режим чтения : Достоверность
Использование точного потока : Да
Отключение кэша аудио : Да
Использование указателей C2 : Нет

Коррекция смещения при чтении : 667
Способность читать области Lead-in и Lead-out : Нет
Заполнение пропущенных сэмплов тишиной : Да
Удаление блоков с тишиной в начале и конце : Нет
При вычислениях CRC использовались нулевые сэмплы : Да
Интерфейс : Установленный внешний ASPI-интерфейс

Выходной формат : Внутренние WAV-операции
Формат сэмплов : 44.100 Гц; 16 бит; стерео


TOC извлечённого CD

Трек | Старт | Длительность | Начальный сектор | Конечный сектор
---------------------------------------------------------------------
1 | 0:00.00 | 2:40.07 | 0 | 12006
2 | 2:40.07 | 3:49.73 | 12007 | 29254
3 | 6:30.05 | 2:44.45 | 29255 | 41599
4 | 9:14.50 | 2:36.25 | 41600 | 53324
5 | 11:51.00 | 5:12.72 | 53325 | 76796
6 | 17:03.72 | 8:40.53 | 76797 | 115849
7 | 25:44.50 | 5:28.22 | 115850 | 140471
8 | 31:12.72 | 3:33.08 | 140472 | 156454
9 | 34:46.05 | 4:36.72 | 156455 | 177226
10 | 39:23.02 | 3:53.00 | 177227 | 194701
11 | 43:16.02 | 4:56.58 | 194702 | 216959
12 | 48:12.60 | 3:22.42 | 216960 | 232151
13 | 51:35.27 | 5:33.23 | 232152 | 257149
14 | 57:08.50 | 3:48.67 | 257150 | 274316
15 | 60:57.42 | 5:21.28 | 274317 | 298419
16 | 66:18.70 | 4:12.65 | 298420 | 317384


Характеристики диапазона извлечения и сообщения об ошибках

Выбранный диапазон

Имя файла D:\Ripflacmusic.ru\B.B. King - Greatest Hits.wav

Пиковый уровень 99.8 %
Скорость извлечения 1.4 X
Качество диапазона 100.0 %
CRC теста 9FBF00B5
CRC копии 9FBF00B5
Копирование... OK

Ошибок не произошло


AccurateRip: сводка

Трек 1 : извлечено точно (доверие 4) [CD8D8331] (AR v2)
Трек 2 : извлечено точно (доверие 4) [7892998F] (AR v2)
Трек 3 : извлечено точно (доверие 4) [7D134862] (AR v2)
Трек 4 : извлечено точно (доверие 4) [102D4A71] (AR v2)
Трек 5 : извлечено точно (доверие 4) [FC11ADB0] (AR v2)
Трек 6 : извлечено точно (доверие 4) [07AA60D7] (AR v2)
Трек 7 : извлечено точно (доверие 4) [E47DEB73] (AR v2)
Трек 8 : извлечено точно (доверие 4) [218F6A53] (AR v2)
Трек 9 : извлечено точно (доверие 4) [DAE5F275] (AR v2)
Трек 10 : извлечено точно (доверие 4) [B91150AB] (AR v2)
Трек 11 : извлечено точно (доверие 4) [9A51C2F3] (AR v2)
Трек 12 : извлечено точно (доверие 4) [600E676B] (AR v2)
Трек 13 : извлечено точно (доверие 5) [A9FCEC1C] (AR v2)
Трек 14 : извлечено точно (доверие 5) [83023699] (AR v2)
Трек 15 : извлечено точно (доверие 5) [3D706AB9] (AR v2)
Трек 16 : извлечено точно (доверие 3) [3127AD04] (AR v2)

Все треки извлечены точно

Конец отчёта

==== Контрольная сумма отчёта 05C58B27F3B52A801382E36B65DA6B3A355CF6B046BD5A7D0594ACA912BA19D5 ====
-----------------------

DON'T MODIFY THIS FILE

-----------------------

PERFORMER: auCDtect Task Manager, ver. 1.6.0 RC1 build 1.6.0.1
Copyright (c) 2008-2010 y-soft. All rights reserved


ANALYZER: auCDtect: CD records authenticity detector, version 0.8.2
Copyright (c) 2004 Oleg Berngardt. All rights reserved.
Copyright (c) 2004 Alexander Djourik. All rights reserved.


FILE: B.B. King - Greatest Hits.flac
Size: 492495797 Hash: 3173952EE3851ED945FA1A85F4A0C7A1 Accuracy: -m0
Conclusion: CDDA 100%
Signature: 1ADAAA4A34FF81E84F850BECCF950C3DC4AE70D6
foobar2000 1.3.2 / Dynamic Range Meter 1.1.1
log date: 2014-05-14 23:04:45

--------------------------------------------------------------------------------
Analyzed: B.B. King / Greatest Hits
--------------------------------------------------------------------------------

DR Peak RMS Duration Track
--------------------------------------------------------------------------------
DR8 -0.01 dB -10.63 dB 2:40 01-Everyday I Have the Blues [Live]
DR8 -0.05 dB -11.52 dB 3:50 02-Sweet Little Angel [Live]
DR10 -0.01 dB -12.05 dB 2:45 03-How Blue Can You Get?
DR8 -0.03 dB -9.85 dB 2:36 04-Paying the Cost To Be the Boss
DR9 -0.03 dB -11.26 dB 5:13 05-Don't Answer the Door
DR9 -0.08 dB -10.62 dB 8:41 06-Why I Sing the Blues
DR9 -0.01 dB -11.58 dB 5:28 07-The Thrill Is Gone
DR11 -0.01 dB -12.39 dB 3:33 08-I Like to Live the Love
DR7 -0.06 dB -10.88 dB 4:37 09-Hummingbird
DR10 -0.01 dB -11.63 dB 3:53 10-To Know You Is To Love You
DR9 -0.07 dB -11.89 dB 4:57 11-Chains and Things
DR11 -0.01 dB -13.18 dB 3:23 12-Better Not Look Down
DR12 -0.01 dB -13.86 dB 5:33 13-Never Make a Move Too Soon
DR11 -0.01 dB -12.46 dB 3:49 14-There Must Be a Better World Somewhere
DR10 -0.05 dB -11.39 dB 5:21 15-Playin' with My Friends [with Robert Cray]
DR8 -0.01 dB -10.09 dB 4:13 16-When Love Comes to Town [with U2]
--------------------------------------------------------------------------------

Number of tracks: 16
Official DR value: DR9

Samplerate: 44100 Hz
Channels: 2
Bits per sample: 16
Bitrate: 931 kbps
Codec: FLAC
================================================================================
01. B.B. King - Everyday I Have the Blues [Live] [2:40]
02. B.B. King - Sweet Little Angel [Live] [3:50]
03. B.B. King - How Blue Can You Get? [2:45]
04. B.B. King - Paying the Cost To Be the Boss [2:36]
05. B.B. King - Don't Answer the Door [5:13]
06. B.B. King - Why I Sing the Blues [8:41]
07. B.B. King - The Thrill Is Gone [5:28]
08. B.B. King - I Like to Live the Love [3:33]
09. B.B. King - Hummingbird [4:37]
10. B.B. King - To Know You Is To Love You [3:53]
11. B.B. King - Chains and Things [4:57]
12. B.B. King - Better Not Look Down [3:23]
13. B.B. King - Never Make a Move Too Soon [5:33]
14. B.B. King - There Must Be a Better World Somewhere [3:49]
15. B.B. King - Playin' with My Friends [with Robert Cray] [5:21]
16. B.B. King - When Love Comes to Town [with U2] [4:13]
--------------------------
Total time: [01:10:31]
B.B. King - The Thrill Is Gone


 
Последнее редактирование модератором:

sergych

Ёшкин кот
VIP
Сообщения
2,236
Реакции
8,407
1994 - Everyday I Have THe Blues



Исполнитель/Artist: B.B. King
Альбом/Album: Everyday I Have THe Blues
Год/Year: 1994
Жанр/Genre: Blues, R&B, electric blues, blues rock
Страна/Country: Германия
Рекорд-лейбл/Record label: PILZ
Номер в каталоге/Catalogue #: FM 8328-2 / 036244832824
Формат/Format: Free Lossless Audio Codec (*.flac)
Качество/Quality: Lossless
Тип рипа/RIP Type: image+.cue
Продолжительность/Length: 00:50:18
Источник/Source: Собственный рип
Размер/Size: 208.5 MB

Сканы в комплекте

01. Catfish Blues [0:02:28.70]
02. B. B. Boogie [0:03:16.70]
03. Everyday I Have The Blues [0:05:03.58]
04. Walkin' And Cryin' [0:03:28.10]
05. Please Love Me [0:02:42.20]
06. How Blue Can You Get [0:04:23.62]
07. The Letter [0:03:32.00]
08. Long Nights [0:03:33.50]
09. Sweet [0:04:18.30]
10. It's My Own Fault Baby [0:03:36.70]
11. You've Done Lost Your Good Thing Now [0:05:14.68]
12. Paying The Cost To The Boss [0:02:39.45]
13. I'm Working On The Building [0:02:52.22]
14. Save a Seat For Me [0:03:07.25]


Exact Audio Copy V1.0 beta 3 from 29. August 2011

EAC extraction logfile from 19. June 2014, 15:31

B. B. King / Everyday I Have THe Blues

Used drive : Optiarc DVD RW AD-5170A Adapter: 0 ID: 0

Read mode : Secure
Utilize accurate stream : Yes
Defeat audio cache : Yes
Make use of C2 pointers : No

Read offset correction : 48
Overread into Lead-In and Lead-Out : No
Fill up missing offset samples with silence : Yes
Delete leading and trailing silent blocks : No
Null samples used in CRC calculations : Yes
Used interface : Installed external ASPI interface

Used output format : User Defined Encoder
Selected bitrate : 1024 kBit/s
Quality : High
Add ID3 tag : No
Command line compressor : C:\MMProgram\Exact Audio Copy\FLAC\FLAC.EXE
Additional command line options : -6 -V -T "ARTIST=%artist%" -T "TITLE=%title%" -T "ALBUM=%albumtitle%" -T "DATE=%year%" -T "TRACKNUMBER=%tracknr%" -T "GENRE=%genre%" -T "COMMENT=%comment%" -T "BAND=%albuminterpret%" -T "ALBUMARTIST=%albuminterpret%" -T "COMPOSER=%composer%" %haslyrics%--tag-from-file=LYRICS="%lyricsfile%"%haslyrics% -T "DISCNUMBER=%cdnumber%" -T "TOTALDISCS=%totalcds%" -T "TOTALTRACKS=%numtracks%" %hascover%--picture="%coverfile%"%hascover% %source% -o %dest%


TOC of the extracted CD

Track | Start | Length | Start sector | End sector
---------------------------------------------------------
1 | 0:00.32 | 2:28.70 | 32 | 11201
2 | 2:29.27 | 3:16.70 | 11202 | 25971
3 | 5:46.22 | 5:03.58 | 25972 | 48754
4 | 10:50.05 | 3:28.10 | 48755 | 64364
5 | 14:18.15 | 2:42.20 | 64365 | 76534
6 | 17:00.35 | 4:23.62 | 76535 | 96321
7 | 21:24.22 | 3:32.00 | 96322 | 112221
8 | 24:56.22 | 3:33.50 | 112222 | 128246
9 | 28:29.72 | 4:18.30 | 128247 | 147626
10 | 32:48.27 | 3:36.70 | 147627 | 163896
11 | 36:25.22 | 5:14.68 | 163897 | 187514
12 | 41:40.15 | 2:39.45 | 187515 | 199484
13 | 44:19.60 | 2:52.22 | 199485 | 212406
14 | 47:12.07 | 3:07.25 | 212407 | 226456


Range status and errors

Selected range

Filename D:\mm\BB King\1993 - Everyday I Have The Blues [036244832824]\B. B. King - Everyday I Have THe Blues.wav

Peak level 99.9 %
Extraction speed 1.2 X
Range quality 100.0 %
Test CRC 26147188
Copy CRC 26147188
Copy OK

No errors occurred


AccurateRip summary

Track 1 accurately ripped (confidence 1) [A21A43A5] (AR v1)
Track 2 accurately ripped (confidence 1) [34C5D94C] (AR v1)
Track 3 accurately ripped (confidence 1) [4093E989] (AR v1)
Track 4 accurately ripped (confidence 1) [85CE7DA7] (AR v1)
Track 5 accurately ripped (confidence 1) [D37055FB] (AR v1)
Track 6 accurately ripped (confidence 1) [0998F3E0] (AR v1)
Track 7 accurately ripped (confidence 1) [357E34D6] (AR v1)
Track 8 accurately ripped (confidence 1) [0788EF68] (AR v1)
Track 9 accurately ripped (confidence 1) [50C41E3B] (AR v1)
Track 10 accurately ripped (confidence 1) [FE05473D] (AR v1)
Track 11 accurately ripped (confidence 1) [154470CF] (AR v1)
Track 12 accurately ripped (confidence 1) [EA2E057E] (AR v1)
Track 13 accurately ripped (confidence 1) [B9C18682] (AR v1)
Track 14 accurately ripped (confidence 1) [F7B0C664] (AR v1)

All tracks accurately ripped

End of status report

==== Log checksum FA29A258205182A9980C5D6A634AA5488251054BF0E6FFE2D2B1BC7D20CC6F85 ====
AUDIOCHECKER v2.0 beta (build 457) - by Dester - [email protected]
~~~~~~~~~~~~~~~~~~~~~~~~~~~~~~~~~~
-=== НЕ РЕДАКТИРУЙТЕ ЭТОТ ФАЙЛ! ===-

Путь: ...\1994 - Everyday I Have The Blues [036244832824]

1 -=- B. B. King - Everyday I Have THe Blues.flac -=- CDDA (100%)

267773044
 
Последнее редактирование:

aheron

Гуру
VIP
Сообщения
15,712
Реакции
18,823
B.B. King - Classic (2000)





Performer: B.B. King
Album: Classic (The Universal Masters Collection)
Label: MCA Records/Universal Music. Made in the EU.
Catalog #: 112 260-2
Style: Blues, Electric Blues
Year: 2000 (Compilation)
Format: FLAC (image + .cue)
Bitrate: lossless
Covers: in archive
Amount of tracks: 16
Size ZIP: ~ 510 mb

Exact Audio Copy V0.99 prebeta 5 from 4. May 2009

EAC extraction logfile from 30. October 2010, 22:25

B.B. King / Classic

Used drive : HL-DT-STDVD-RAM GH22NP20 Adapter: 0 ID: 0

Read mode : Secure
Utilize accurate stream : Yes
Defeat audio cache : Yes
Make use of C2 pointers : No

Read offset correction : 102
Overread into Lead-In and Lead-Out : No
Fill up missing offset samples with silence : Yes
Delete leading and trailing silent blocks : No
Null samples used in CRC calculations : Yes
Used interface : Native Win32 interface for Win NT & 2000

Used output format : User Defined Encoder
Selected bitrate : 32 kBit/s
Quality : High
Add ID3 tag : No
Command line compressor : C:\Program Files\FLAC\flac.exe
Additional command line options : -8 -V -T "ARTIST=%a" -T "TITLE=%t" -T "ALBUM=%g" -T "DATE=%y" -T "TRACKNUMBER=%n" -T "GENRE=%m" -T "COMMENT=EAC FLAC -8" %s


TOC of the extracted CD

Track | Start | Length | Start sector | End sector
---------------------------------------------------------
1 | 0:00.00 | 5:27.07 | 0 | 24531
2 | 5:27.07 | 3:17.35 | 24532 | 39341
3 | 8:44.42 | 5:31.48 | 39342 | 64214
4 | 14:16.15 | 4:09.40 | 64215 | 82929
5 | 18:25.55 | 3:31.30 | 82930 | 98784
6 | 21:57.10 | 5:12.25 | 98785 | 122209
7 | 27:09.35 | 6:12.25 | 122210 | 150134
8 | 33:21.60 | 2:35.00 | 150135 | 161759
9 | 35:56.60 | 3:24.42 | 161760 | 177101
10 | 39:21.27 | 4:11.48 | 177102 | 195974
11 | 43:33.00 | 3:23.57 | 195975 | 211256
12 | 46:56.57 | 3:40.10 | 211257 | 227766
13 | 50:36.67 | 3:41.48 | 227767 | 244389
14 | 54:18.40 | 8:38.45 | 244390 | 283284
15 | 62:57.10 | 2:42.42 | 283285 | 295476
16 | 65:39.52 | 3:51.15 | 295477 | 312816


Range status and errors

Selected range

Filename C:\pmx222\B.B. King - Classic.wav

Peak level 99.6 %
Range quality 100.0 %
Test CRC 9FC0E6D5
Copy CRC 9FC0E6D5
Copy OK

No errors occurred


AccurateRip summary

Track 1 accurately ripped (confidence 13) [0FBE6671]
Track 2 accurately ripped (confidence 13) [B847F61D]
Track 3 accurately ripped (confidence 13) [B790BBB9]
Track 4 accurately ripped (confidence 13) [246AEDC3]
Track 5 accurately ripped (confidence 13) [7EFBFB26]
Track 6 accurately ripped (confidence 13) [F00E3036]
Track 7 accurately ripped (confidence 13) [236A8B87]
Track 8 accurately ripped (confidence 13) [6E9C3B83]
Track 9 accurately ripped (confidence 13) [2534B47B]
Track 10 accurately ripped (confidence 13) [DBDADE91]
Track 11 accurately ripped (confidence 13) [66E1A700]
Track 12 accurately ripped (confidence 13) [07878886]
Track 13 accurately ripped (confidence 12) [2DA333CF]
Track 14 accurately ripped (confidence 12) [912C4B02]
Track 15 accurately ripped (confidence 12) [B88654CC]
Track 16 accurately ripped (confidence 12) [AEE44A11]

All tracks accurately ripped

End of status report
-----------------------

DON'T MODIFY THIS FILE

-----------------------

PERFORMER: auCDtect Task Manager, ver. 1.6.0 RC1 build 1.6.0.1
Copyright (c) 2008-2010 y-soft. All rights reserved


ANALYZER: auCDtect: CD records authenticity detector, version 0.8.2
Copyright (c) 2004 Oleg Berngardt. All rights reserved.
Copyright (c) 2004 Alexander Djourik. All rights reserved.


FILE: B.B. King - Classic.flac
Size: 450108704 Hash: C8B631262EAFC36014B1377E16E3109D Accuracy: -m0
Conclusion: CDDA 100%
Signature: AAF7A9E6F2BA79019A21D671969FE7C0EF3485E5
foobar2000 1.3.6 / Dynamic Range Meter 1.1.1
log date: 2015-01-05 18:02:51

--------------------------------------------------------------------------------
Analyzed: B.B. King / Classic
--------------------------------------------------------------------------------

DR Peak RMS Duration Track
--------------------------------------------------------------------------------
DR8 -1.18 dB -11.36 dB 5:27 01-The Thrill Is Gone
DR8 -1.17 dB -11.08 dB 3:17 02-Ain't Nobody Home
DR8 -1.17 dB -10.63 dB 5:32 03-Let The Good Times Roll (feat. Bobby Bland)
DR5 -1.16 dB -9.44 dB 4:10 04-Guess Who
DR9 -1.17 dB -11.66 dB 3:31 05-I lLke To Live The Love
DR7 -1.17 dB -10.34 dB 5:12 06-Don't Answer The Door
DR9 -1.07 dB -12.43 dB 6:12 07-Sweet Sixteen
DR6 -1.17 dB -9.02 dB 2:35 08-Paying The Cost To Be The Boss
DR7 -1.17 dB -10.99 dB 3:25 09-I Got Some Help I Don't Need
DR9 -1.17 dB -11.90 dB 4:12 10-Into The Night
DR12 -1.27 dB -15.04 dB 3:24 11-In The Midnight Hour
DR13 -1.49 dB -16.94 dB 3:40 12-My Guitar Sings The Blues
DR13 -1.05 dB -16.48 dB 3:42 13-My Lucille
DR8 -1.17 dB -10.71 dB 8:39 14-Why I Sing The Blues
DR10 -0.10 dB -12.40 dB 2:43 15-How Blue Can You Get
DR10 -0.03 dB -11.76 dB 3:51 16-To Know You Is To Love You
--------------------------------------------------------------------------------

Number of tracks: 16
Official DR value: DR9

Samplerate: 44100 Hz
Channels: 2
Bits per sample: 16
Bitrate: 863 kbps
Codec: FLAC
================================================================================
01. B.B. King - The Thrill Is Gone [5:27]
02. B.B. King - Ain't Nobody Home [3:17]
03. B.B. King - Let The Good Times Roll (feat. Bobby Bland) [5:32]
04. B.B. King - Guess Who [4:10]
05. B.B. King - I lLke To Live The Love [3:31]
06. B.B. King - Don't Answer The Door [5:12]
07. B.B. King - Sweet Sixteen [6:12]
08. B.B. King - Paying The Cost To Be The Boss [2:35]
09. B.B. King - I Got Some Help I Don't Need [3:25]
10. B.B. King - Into The Night [4:12]
11. B.B. King - In The Midnight Hour [3:24]
12. B.B. King - My Guitar Sings The Blues [3:40]
13. B.B. King - My Lucille [3:42]
14. B.B. King - Why I Sing The Blues [8:39]
15. B.B. King - How Blue Can You Get [2:43]
16. B.B. King - To Know You Is To Love You [3:51]
--------------------------
Total time: [1:09:30]
B.B. King - Into The Night


 
Последнее редактирование модератором:

aheron

Гуру
VIP
Сообщения
15,712
Реакции
18,823
B.B. King - Icon 2 (2011)





Performer: B.B. King
Album: Icon 2
Label: Geffen Records. Made in US.
Catalog #: B0015302-02
Style: Blues, Electric Blues
Year: 2011 (2×CD Compilation Studio & Live)
Format: FLAC (image + .cue)
Bitrate: lossless
Covers: in archive
Amount of tracks: 12+12
Size ZIP: ~ 715 mb

Exact Audio Copy V1.0 beta 1 from 15. November 2010

EAC extraction logfile from 21. December 2011, 22:56

B.B. King / Icon 2 (cd-1)

Used drive : TSSTcorpCDDVDW TS-L633C Adapter: 0 ID: 1

Read mode : Secure
Utilize accurate stream : Yes
Defeat audio cache : Yes
Make use of C2 pointers : No

Read offset correction : 6
Overread into Lead-In and Lead-Out : No
Fill up missing offset samples with silence : Yes
Delete leading and trailing silent blocks : No
Null samples used in CRC calculations : Yes
Used interface : Native Win32 interface for Win NT & 2000

Used output format : Пользовательский кодировщик
Selected bitrate : 1024 kBit/s
Quality : High
Add ID3 tag : No
Command line compressor : C:\Program Files\Exact Audio Copy\FLAC\FLAC.EXE
Additional command line options : -6 -V -T "ARTIST=%a" -T "TITLE=%t" -T "ALBUM=%g" -T "DATE=%y" -T "TRACKNUMBER=%n" -T "GENRE=%m" -T "COMMENT=%e" %j--picture="%i"%j %s -o %d


TOC of the extracted CD

Track | Start | Length | Start sector | End sector
---------------------------------------------------------
1 | 0:00.00 | 2:42.13 | 0 | 12162
2 | 2:42.13 | 2:38.29 | 12163 | 24041
3 | 5:20.42 | 3:08.33 | 24042 | 38174
4 | 8:29.00 | 3:46.36 | 38175 | 55160
5 | 12:15.36 | 2:36.66 | 55161 | 66926
6 | 14:52.27 | 5:10.17 | 66927 | 90193
7 | 20:02.44 | 2:33.65 | 90194 | 101733
8 | 22:36.34 | 8:38.10 | 101734 | 140593
9 | 31:14.44 | 5:25.34 | 140594 | 165002
10 | 36:40.03 | 1:26.54 | 165003 | 171506
11 | 38:06.57 | 4:34.55 | 171507 | 192111
12 | 42:41.37 | 4:53.61 | 192112 | 214147


Range status and errors

Selected range

Filename D:\рмх222\B.B. King - Icon 2 (cd-1).wav

Peak level 98.9 %
Extraction speed 0.3 X
Range quality 100.0 %
Test CRC CAF46945
Copy CRC CAF46945
Copy OK

No errors occurred


AccurateRip summary

Track 1 accurately ripped (confidence 1) [9BB898F5]
Track 2 accurately ripped (confidence 1) [2490395C]
Track 3 accurately ripped (confidence 1) [A6816CB9]
Track 4 accurately ripped (confidence 1) [5797598A]
Track 5 accurately ripped (confidence 1) [09853D2C]
Track 6 accurately ripped (confidence 1) [64DA7207]
Track 7 accurately ripped (confidence 1) [62118ECB]
Track 8 accurately ripped (confidence 1) [2D424F59]
Track 9 accurately ripped (confidence 1) [F0BC4AA8]
Track 10 accurately ripped (confidence 1) [CCC06DB0]
Track 11 accurately ripped (confidence 1) [3D7941FB]
Track 12 accurately ripped (confidence 1) [F2699268]

All tracks accurately ripped

End of status report

==== Log checksum 7BC91FD90531AFC876BD93FD3ACD93DEB1EEB53DC7406897E6E54F6BBE08CD80 ====

////////////////////////////////////////////////////////////////////////////////////////////////////////

Exact Audio Copy V1.0 beta 1 from 15. November 2010

EAC extraction logfile from 21. December 2011, 23:50

B.B. King / Icon 2 - Disc Two

Used drive : TSSTcorpCDDVDW TS-L633C Adapter: 0 ID: 1

Read mode : Secure
Utilize accurate stream : Yes
Defeat audio cache : Yes
Make use of C2 pointers : No

Read offset correction : 6
Overread into Lead-In and Lead-Out : No
Fill up missing offset samples with silence : Yes
Delete leading and trailing silent blocks : No
Null samples used in CRC calculations : Yes
Used interface : Native Win32 interface for Win NT & 2000

Used output format : Пользовательский кодировщик
Selected bitrate : 1024 kBit/s
Quality : High
Add ID3 tag : No
Command line compressor : C:\Program Files\Exact Audio Copy\FLAC\FLAC.EXE
Additional command line options : -6 -V -T "ARTIST=%a" -T "TITLE=%t" -T "ALBUM=%g" -T "DATE=%y" -T "TRACKNUMBER=%n" -T "GENRE=%m" -T "COMMENT=%e" %j--picture="%i"%j %s -o %d


TOC of the extracted CD

Track | Start | Length | Start sector | End sector
---------------------------------------------------------
1 | 0:00.00 | 3:15.36 | 0 | 14660
2 | 3:15.36 | 5:13.56 | 14661 | 38191
3 | 8:29.17 | 4:07.63 | 38192 | 56779
4 | 12:37.05 | 8:32.43 | 56780 | 95222
5 | 21:09.48 | 3:17.71 | 95223 | 110068
6 | 24:27.44 | 5:51.31 | 110069 | 136424
7 | 30:19.00 | 5:31.15 | 136425 | 161264
8 | 35:50.15 | 3:21.70 | 161265 | 176409
9 | 39:12.10 | 3:46.06 | 176410 | 193365
10 | 42:58.16 | 4:47.61 | 193366 | 214951
11 | 47:46.02 | 5:18.01 | 214952 | 238802
12 | 53:04.03 | 4:50.71 | 238803 | 260623


Range status and errors

Selected range

Filename D:\рмх222\B.B. King - Icon 2 - Disc Two.wav

Peak level 98.9 %
Extraction speed 0.2 X
Range quality 100.0 %
Test CRC 2AA58B48
Copy CRC 2AA58B48
Copy OK

No errors occurred


AccurateRip summary

Track 1 accurately ripped (confidence 1) [8CD4D3BA]
Track 2 accurately ripped (confidence 1) [9AFB58BC]
Track 3 accurately ripped (confidence 1) [A58B88A5]
Track 4 accurately ripped (confidence 1) [C8AE7CBE]
Track 5 accurately ripped (confidence 1) [DC35D008]
Track 6 accurately ripped (confidence 1) [CEA32928]
Track 7 accurately ripped (confidence 1) [BF175E19]
Track 8 accurately ripped (confidence 1) [A7DE5667]
Track 9 accurately ripped (confidence 1) [6025C445]
Track 10 accurately ripped (confidence 1) [F9DFDC2B]
Track 11 accurately ripped (confidence 1) [112AC159]
Track 12 accurately ripped (confidence 1) [EDFCC8BC]

All tracks accurately ripped

End of status report

==== Log checksum AD62F283FA8BD27E38E7FAACED560A47A29F9BE63CEF3E35E552AA5CDC8477DF ====
-----------------------

DON'T MODIFY THIS FILE

-----------------------

PERFORMER: auCDtect Task Manager, ver. 1.6.0 RC1 build 1.6.0.1
Copyright (c) 2008-2010 y-soft. All rights reserved


ANALYZER: auCDtect: CD records authenticity detector, version 0.8.2
Copyright (c) 2004 Oleg Berngardt. All rights reserved.
Copyright (c) 2004 Alexander Djourik. All rights reserved.


FILE: B.B. King - Icon 2 (cd-1).flac
Size: 312711597 Hash: 44F5C4CB94B0AA0F4163F45BEA9D2171 Accuracy: -m0
Conclusion: CDDA 100%
Signature: E8844EFFB3EA2A8B45D76C0F81BB94294C199435

////////////////////////////////////////////////////////////////////////

-----------------------

DON'T MODIFY THIS FILE

-----------------------

PERFORMER: auCDtect Task Manager, ver. 1.6.0 RC1 build 1.6.0.1
Copyright (c) 2008-2010 y-soft. All rights reserved


ANALYZER: auCDtect: CD records authenticity detector, version 0.8.2
Copyright (c) 2004 Oleg Berngardt. All rights reserved.
Copyright (c) 2004 Alexander Djourik. All rights reserved.


FILE: B.B. King - Icon 2 - Disc Two.flac
Size: 394367175 Hash: 6494C100FC76AFB5FB48040388792328 Accuracy: -m0
Conclusion: CDDA 100%
Signature: 6EFE611873C69DDAD03648815AD14BC2057E0C53
foobar2000 1.3.6 / Dynamic Range Meter 1.1.1
log date: 2015-01-05 16:16:06

--------------------------------------------------------------------------------
Analyzed: B.B. King / Icon 2 (cd-1)
--------------------------------------------------------------------------------

DR Peak RMS Duration Track
--------------------------------------------------------------------------------
DR9 -0.10 dB -11.78 dB 2:42 01-How Blue Can You Get?
DR9 -0.10 dB -10.85 dB 2:38 02-Help The Poor
DR7 -0.10 dB -10.31 dB 3:08 03-Every Day I Have The Blues (Live)
DR7 -0.10 dB -10.52 dB 3:46 04-Sweet Little Angel (Live)
DR9 -0.10 dB -11.75 dB 2:37 05-All Over Again
DR10 -0.10 dB -12.09 dB 5:10 06-Don't Answer The Door
DR8 -0.10 dB -9.83 dB 2:34 07-Paying The Cost To Be The Boss
DR10 -0.10 dB -11.17 dB 8:38 08-Why I Sing The Blues
DR9 -0.10 dB -11.36 dB 5:25 09-The Thrill Is Gone
DR11 -0.10 dB -13.73 dB 1:27 10-Nobody Loves Me But My Mother
DR7 -0.10 dB -10.15 dB 4:35 11-Hummingbird
DR10 -0.10 dB -12.54 dB 4:54 12-Chains And Things
--------------------------------------------------------------------------------

Number of tracks: 12
Official DR value: DR9

Samplerate: 44100 Hz
Channels: 2
Bits per sample: 16
Bitrate: 876 kbps
Codec: FLAC
================================================================================

//////////////////////////////////////////////////////////////////////////////

foobar2000 1.3.6 / Dynamic Range Meter 1.1.1
log date: 2015-01-05 16:16:29

--------------------------------------------------------------------------------
Analyzed: B.B. King / Icon 2 - Disc Two
--------------------------------------------------------------------------------

DR Peak RMS Duration Track
--------------------------------------------------------------------------------
DR8 -0.10 dB -10.24 dB 3:15 01-Ain't Nobody Home
DR8 -0.10 dB -10.43 dB 5:14 02-Ghetto Woman
DR6 -0.10 dB -9.49 dB 4:08 03-Guess Who
DR10 -0.10 dB -11.58 dB 8:33 04-To Know You Is To Love You
DR10 -0.10 dB -11.32 dB 3:18 05-I Like To Live The Love
DR8 -0.10 dB -10.03 dB 5:51 06-Let The Good Times Roll (Live)
DR9 -0.10 dB -11.45 dB 5:31 07-Never Make A Move Too Soon
DR10 -0.10 dB -12.37 dB 3:22 08-Better Not Look Down
DR9 -0.10 dB -12.08 dB 3:46 09-There Must Be A Better World Somewhere
DR9 -0.20 dB -10.82 dB 4:48 10-When Love Comes To Town (Live)
DR12 -0.10 dB -13.47 dB 5:18 11-Playin' With My Friends
DR9 -0.30 dB -10.76 dB 4:51 12-I'll Survive
--------------------------------------------------------------------------------

Number of tracks: 12
Official DR value: DR9

Samplerate: 44100 Hz
Channels: 2
Bits per sample: 16
Bitrate: 908 kbps
Codec: FLAC
================================================================================
CD1
-------------------------
01. B.B. King - How Blue Can You Get? [2:42]
02. B.B. King - Help The Poor [2:38]
03. B.B. King - Every Day I Have The Blues (Live) [3:08]
04. B.B. King - Sweet Little Angel (Live) [3:46]
05. B.B. King - All Over Again [2:37]
06. B.B. King - Don't Answer The Door [5:10]
07. B.B. King - Paying The Cost To Be The Boss [2:34]
08. B.B. King - Why I Sing The Blues [8:38]
09. B.B. King - The Thrill Is Gone [5:25]
10. B.B. King - Nobody Loves Me But My Mother [1:27]
11. B.B. King - Hummingbird [4:35]
12. B.B. King - Chains And Things [4:54]
--------------------------
Total time: [47:35]

CD2
-------------------------
01. B.B. King - Ain't Nobody Home [3:15]
02. B.B. King - Ghetto Woman [5:14]
03. B.B. King - Guess Who [4:08]
04. B.B. King - To Know You Is To Love You [8:33]
05. B.B. King - I Like To Live The Love [3:18]
06. B.B. King - Let The Good Times Roll (Live) [5:51]
07. B.B. King - Never Make A Move Too Soon [5:31]
08. B.B. King - Better Not Look Down [3:22]
09. B.B. King - There Must Be A Better World Somewhere [3:46]
10. B.B. King - When Love Comes To Town (Live) [4:48]
11. B.B. King - Playin' With My Friends [5:18]
12. B.B. King - I'll Survive [4:51]
--------------------------
Total time: [57:55]


Notes:
=====================
Universal’s double-disc Icon doubles the size of their single-disc set of the same name and covers the same ground only in greater detail, adding a few more live tracks and studio staples to draw a greater picture of his ABC and MCA recordings of the late ‘60s, ‘70s, and beyond. It’s a bit shorter than 2006’s Gold and not quite as rounded, yet it’s still a very good sampler of B.B. King at his latter-day best.
 
Последнее редактирование модератором:

aheron

Гуру
VIP
Сообщения
15,712
Реакции
18,823
B.B. King - King Of The Blues 1989 (1988)





Performer: B.B. King
Album: King Of The Blues 1989
Label: MCA Records. Made in Germany.
Catalog #: MCD 06038 / DMCG 6038
Style: Soul Blues, Electric Blues
Year: 1988
Format: FLAC (image + .cue)
Bitrate: lossless
Covers: in archive
Amount of tracks: 11
Size ZIP: ~ 360 mb

Exact Audio Copy V1.0 beta 5 from 2. April 2015

Отчёт EAC об извлечении, выполненном 11. апреля 2015, 9:12

B.B. King / King Of The Blues 1989

Дисковод: SONY CD-RW CRX230ED Adapter: 1 ID: 0

Режим чтения : Достоверность
Использование точного потока : Да
Отключение кэша аудио : Да
Использование указателей C2 : Нет

Коррекция смещения при чтении : 6
Способность читать области Lead-in и Lead-out : Нет
Заполнение пропущенных сэмплов тишиной : Да
Удаление блоков с тишиной в начале и конце : Нет
При вычислениях CRC использовались нулевые сэмплы : Да
Интерфейс : Встроенный Win32-интерфейс для Win NT/2000

Выходной формат : Внутренние WAV-операции
Формат сэмплов : 44.100 Гц; 16 бит; стерео


TOC извлечённого CD

Трек | Старт | Длительность | Начальный сектор | Конечный сектор
---------------------------------------------------------------------
1 | 0:00.00 | 4:44.67 | 0 | 21366
2 | 4:44.67 | 4:39.13 | 21367 | 42304
3 | 9:24.05 | 4:52.42 | 42305 | 64246
4 | 14:16.47 | 5:21.65 | 64247 | 88386
5 | 19:38.37 | 3:54.65 | 88387 | 106001
6 | 23:33.27 | 5:36.33 | 106002 | 131234
7 | 29:09.60 | 3:28.32 | 131235 | 146866
8 | 32:38.17 | 5:40.30 | 146867 | 172396
9 | 38:18.47 | 4:02.63 | 172397 | 190609
10 | 42:21.35 | 3:32.50 | 190610 | 206559
11 | 45:54.10 | 5:32.57 | 206560 | 231516


Характеристики диапазона извлечения и сообщения об ошибках

Выбранный диапазон

Имя файла F:\MusicCD\Torrent\B.B. King - King Of The Blues 1989\B.B. King - King Of The Blues 1989.wav

Пиковый уровень 95.5 %
Скорость извлечения 6.7 X
Качество диапазона 99.9 %
CRC теста 14FEFF98
CRC копии 14FEFF98
Копирование... OK

Ошибок не произошло


AccurateRip: сводка

Трек 1 : извлечено точно (доверие 3) [9B961EA8] (AR v2)
Трек 2 : извлечено точно (доверие 3) [2674CC00] (AR v2)
Трек 3 : извлечено точно (доверие 3) [158F735F] (AR v2)
Трек 4 : извлечено точно (доверие 3) [41654F9C] (AR v2)
Трек 5 : извлечено точно (доверие 3) [7B1EFC56] (AR v2)
Трек 6 : извлечено точно (доверие 3) [D608482D] (AR v2)
Трек 7 : извлечено точно (доверие 3) [44EACA83] (AR v2)
Трек 8 : извлечено точно (доверие 3) [0ADD1DD4] (AR v2)
Трек 9 : извлечено точно (доверие 3) [E62996F7] (AR v2)
Трек 10 : извлечено точно (доверие 3) [9AB43DEA] (AR v2)
Трек 11 : извлечено точно (доверие 3) [E22D4AAC] (AR v2)

Все треки извлечены точно

Конец отчёта

---- CUETools DB Plugin V2.1.6

[CTDB TOCID: QNIrLlrZ6ZTBLvFI6r1JbADL2mM-] found
Submit result: QNIrLlrZ6ZTBLvFI6r1JbADL2mM- has been confirmed
Track | CTDB Status
1 | (17/17) Accurately ripped
2 | (17/17) Accurately ripped
3 | (17/17) Accurately ripped
4 | (17/17) Accurately ripped
5 | (16/17) Accurately ripped
6 | (16/17) Accurately ripped
7 | (17/17) Accurately ripped
8 | (17/17) Accurately ripped
9 | (17/17) Accurately ripped
10 | (17/17) Accurately ripped
11 | (15/17) Accurately ripped


==== Контрольная сумма отчёта 3049A826AD6469F67D4BAE6ABB8960B0BCF02D95C64831987C125F74B0E36E5A ====
-----------------------

DON'T MODIFY THIS FILE

-----------------------

PERFORMER: auCDtect Task Manager, ver. 1.6.0 RC1 build 1.6.0.1
Copyright (c) 2008-2010 y-soft. All rights reserved


ANALYZER: auCDtect: CD records authenticity detector, version 0.8.2
Copyright (c) 2004 Oleg Berngardt. All rights reserved.
Copyright (c) 2004 Alexander Djourik. All rights reserved.


FILE: B.B. King - King Of The Blues 1989.flac
Size: 335709507 Hash: 2BD9F1F55AC3130908BFD72E74238747 Accuracy: -m0
Conclusion: MPEG 95%
Signature: 1DA3CFF51C740BEA6440A002949F99EE3D149C4C
foobar2000 1.3.8 / Dynamic Range Meter 1.1.1
log date: 2015-04-26 00:35:16

--------------------------------------------------------------------------------
Analyzed: B.B. King / King Of The Blues 1989
--------------------------------------------------------------------------------

DR Peak RMS Duration Track
--------------------------------------------------------------------------------
DR14 -0.40 dB -15.77 dB 4:45 01-(You've Become A) Habit To Me
DR14 -0.40 dB -17.01 dB 4:39 02-Drowning In The Sea Of Love
DR13 -0.61 dB -15.38 dB 4:53 03-Can't Get Enough
DR14 -0.40 dB -16.03 dB 5:22 04-Standing On The Edge
DR14 -0.93 dB -16.02 dB 3:55 05-Go On
DR13 -2.01 dB -16.48 dB 5:36 06-Let's Straighten It Out
DR14 -0.40 dB -15.68 dB 3:28 07-Change In Your Lovin'
DR12 -2.12 dB -15.14 dB 5:40 08-Undercover Man
DR13 -0.86 dB -16.61 dB 4:03 09-Lay Another Log On The Fire
DR13 -1.03 dB -16.77 dB 3:33 10-Business With My Baby Tonight
DR14 -1.36 dB -17.99 dB 5:33 11-Take Off Your Shoes
--------------------------------------------------------------------------------

Number of tracks: 11
Official DR value: DR13

Samplerate: 44100 Hz
Channels: 2
Bits per sample: 16
Bitrate: 870 kbps
Codec: FLAC
================================================================================
01. B.B. King - (You've Become A) Habit To Me [4:45]
02. B.B. King - Drowning In The Sea Of Love [4:39]
03. B.B. King - Can't Get Enough [4:53]
04. B.B. King - Standing On The Edge [5:22]
05. B.B. King - Go On [3:55]
06. B.B. King - Let's Straighten It Out [5:36]
07. B.B. King - Change In Your Lovin' [3:28]
08. B.B. King - Undercover Man [5:40]
09. B.B. King - Lay Another Log On The Fire [4:03]
10. B.B. King - Business With My Baby Tonight [3:33]
11. B.B. King - Take Off Your Shoes [5:33]
--------------------------
Total time: [51:26]


Notes:
=====================
Ⓟ Ⓒ 1988 MCA Records, Inc.
Printed In Germany
 
Последнее редактирование модератором:

aheron

Гуру
VIP
Сообщения
15,712
Реакции
18,823
B.B. King - Reflections (2003)





Performer: B.B. King
Album: Reflections
Label: MCA Records. Made in the EU.
Catalog #: 0602498010440
Style: Chicago Blues, Electric Blues
Year: 2003 (Compilation)
Format: FLAC (image + .cue)
Bitrate: lossless
Covers: in archive
Amount of tracks: 13
Size ZIP: ~ 386 mb

Exact Audio Copy V1.0 beta 6 from 9. April 2015

Отчёт EAC об извлечении, выполненном 13. апреля 2015, 18:49

B.B. King / Reflections

Дисковод: SONY CD-RW CRX230ED Adapter: 1 ID: 0

Режим чтения : Достоверность
Использование точного потока : Да
Отключение кэша аудио : Да
Использование указателей C2 : Нет

Коррекция смещения при чтении : 6
Способность читать области Lead-in и Lead-out : Нет
Заполнение пропущенных сэмплов тишиной : Да
Удаление блоков с тишиной в начале и конце : Нет
При вычислениях CRC использовались нулевые сэмплы : Да
Интерфейс : Встроенный Win32-интерфейс для Win NT/2000

Выходной формат : Внутренние WAV-операции
Формат сэмплов : 44.100 Гц; 16 бит; стерео


TOC извлечённого CD

Трек | Старт | Длительность | Начальный сектор | Конечный сектор
---------------------------------------------------------------------
1 | 0:00.00 | 3:21.25 | 0 | 15099
2 | 3:21.25 | 3:22.10 | 15100 | 30259
3 | 6:43.35 | 2:48.35 | 30260 | 42894
4 | 9:31.70 | 3:31.37 | 42895 | 58756
5 | 13:03.32 | 3:02.55 | 58757 | 72461
6 | 16:06.12 | 2:59.10 | 72462 | 85896
7 | 19:05.22 | 3:30.60 | 85897 | 101706
8 | 22:36.07 | 4:27.28 | 101707 | 121759
9 | 27:03.35 | 3:36.17 | 121760 | 137976
10 | 30:39.52 | 3:29.70 | 137977 | 153721
11 | 34:09.47 | 3:56.63 | 153722 | 171484
12 | 38:06.35 | 4:29.20 | 171485 | 191679
13 | 42:35.55 | 3:57.22 | 191680 | 209476


Характеристики диапазона извлечения и сообщения об ошибках

Выбранный диапазон

Имя файла F:\MusicCD\Torrent\B.B. King - Reflections\B.B. King - Reflections.wav

Пиковый уровень 99.8 %
Скорость извлечения 7.1 X
Качество диапазона 99.9 %
CRC теста 194B0D27
CRC копии 194B0D27
Копирование... OK

Ошибок не произошло


AccurateRip: сводка

Трек 1 : извлечено точно (доверие 27) [E1A9FCF7] (AR v2)
Трек 2 : извлечено точно (доверие 28) [2BB8048C] (AR v2)
Трек 3 : извлечено точно (доверие 27) [34A8E6B5] (AR v2)
Трек 4 : извлечено точно (доверие 27) [5AB053F4] (AR v2)
Трек 5 : извлечено точно (доверие 27) [31BA4139] (AR v2)
Трек 6 : извлечено точно (доверие 27) [EF437D08] (AR v2)
Трек 7 : извлечено точно (доверие 27) [E38C1C78] (AR v2)
Трек 8 : извлечено точно (доверие 27) [ADF263F8] (AR v2)
Трек 9 : извлечено точно (доверие 27) [71678063] (AR v2)
Трек 10 : извлечено точно (доверие 28) [C345908A] (AR v2)
Трек 11 : извлечено точно (доверие 27) [CA47A55E] (AR v2)
Трек 12 : извлечено точно (доверие 27) [3AC29D49] (AR v2)
Трек 13 : извлечено точно (доверие 28) [8C5BCFAC] (AR v2)

Все треки извлечены точно

Конец отчёта

---- CUETools DB Plugin V2.1.6

[CTDB TOCID: csCtlAfLAilld8YGc_tjKNFuTZE-] found
Submit result: csCtlAfLAilld8YGc_tjKNFuTZE- has been confirmed
Track | CTDB Status
1 | (23/23) Accurately ripped
2 | (23/23) Accurately ripped
3 | (23/23) Accurately ripped
4 | (23/23) Accurately ripped
5 | (23/23) Accurately ripped
6 | (23/23) Accurately ripped
7 | (23/23) Accurately ripped
8 | (23/23) Accurately ripped
9 | (23/23) Accurately ripped
10 | (23/23) Accurately ripped
11 | (23/23) Accurately ripped
12 | (23/23) Accurately ripped
13 | (22/23) Accurately ripped


==== Контрольная сумма отчёта 867267A54223E4A12C942D346FAB488B7E28A304ACAC10864D76FA48F027A7B8 ====
-----------------------

DON'T MODIFY THIS FILE

-----------------------

PERFORMER: auCDtect Task Manager, ver. 1.6.0 RC1 build 1.6.0.1
Copyright (c) 2008-2010 y-soft. All rights reserved


ANALYZER: auCDtect: CD records authenticity detector, version 0.8.2
Copyright (c) 2004 Oleg Berngardt. All rights reserved.
Copyright (c) 2004 Alexander Djourik. All rights reserved.


FILE: B.B. King - Reflections.flac
Size: 327649681 Hash: E5714E7EAE9D3D8E279AA8F0D0E0C6B2 Accuracy: -m0
Conclusion: CDDA 100%
Signature: 2625C59EB292B060EC60D97B1D75A76796004AE6
foobar2000 1.3.8 / Dynamic Range Meter 1.1.1
log date: 2015-04-26 19:14:51

--------------------------------------------------------------------------------
Analyzed: B.B. King / Reflections
--------------------------------------------------------------------------------

DR Peak RMS Duration Track
--------------------------------------------------------------------------------
DR8 -0.01 dB -9.88 dB 3:21 01-Exactly Like You
DR7 -0.01 dB -8.22 dB 3:22 02-On My Word Of Honor
DR7 -0.01 dB -9.02 dB 2:48 03-I Want A Little Girl
DR8 -0.01 dB -9.84 dB 3:31 04-I'll String Along With You
DR6 -0.01 dB -8.39 dB 3:03 05-I Need You
DR6 -0.01 dB -8.50 dB 2:59 06-A Mother's Love
DR8 -0.01 dB -10.22 dB 3:31 07-(I Love You) For Sentimental Reasons
DR8 -0.01 dB -9.20 dB 4:27 08-Neighborhood Affair
DR8 -0.01 dB -9.04 dB 3:36 09-Tomorrow Night
DR7 -0.01 dB -9.87 dB 3:30 10-There I've Said It Again
DR6 -0.01 dB -9.08 dB 3:57 11-Always On My Mind
DR8 -0.01 dB -9.60 dB 4:29 12-Cross My Heart
DR7 -0.01 dB -10.22 dB 3:57 13-What A Wonderful World
--------------------------------------------------------------------------------

Number of tracks: 13
Official DR value: DR7

Samplerate: 44100 Hz
Channels: 2
Bits per sample: 16
Bitrate: 938 kbps
Codec: FLAC
================================================================================
01. B.B. King - Exactly Like You [3:21]
02. B.B. King - On My Word Of Honor [3:22]
03. B.B. King - I Want A Little Girl [2:48]
04. B.B. King - I'll String Along With You [3:31]
05. B.B. King - I Need You [3:03]
06. B.B. King - A Mother's Love [2:59]
07. B.B. King - (I Love You) For Sentimental Reasons [3:31]
08. B.B. King - Neighborhood Affair [4:27]
09. B.B. King - Tomorrow Night [3:36]
10. B.B. King - There I've Said It Again [3:30]
11. B.B. King - Always On My Mind [3:57]
12. B.B. King - Cross My Heart [4:29]
13. B.B. King - What A Wonderful World [3:57]
--------------------------
Total time: [46:33]


Notes:
=====================
Ⓟ 2003 MCA Records
Ⓒ 2003 MCA Records
 
Последнее редактирование модератором:

aheron

Гуру
VIP
Сообщения
15,712
Реакции
18,823
B.B. King - There Is Always One More Time (1991)





Performer: B.B. King
Album: There Is Always One More Time
Label: MCA Records. Made in US.
Catalog #: MCAD-10295
Style: Electric Blues, Rhythm & Blues
Year: 1991
Format: FLAC (image + .cue)
Bitrate: lossless
Covers: in archive
Amount of tracks: 9
Size ZIP: ~ 342 mb

Exact Audio Copy V1.0 beta 5 from 2. April 2015

Отчёт EAC об извлечении, выполненном 11. апреля 2015, 8:03

B.B. King / There Is Always One More Time

Дисковод: SONY CD-RW CRX230ED Adapter: 1 ID: 0

Режим чтения : Достоверность
Использование точного потока : Да
Отключение кэша аудио : Да
Использование указателей C2 : Нет

Коррекция смещения при чтении : 6
Способность читать области Lead-in и Lead-out : Нет
Заполнение пропущенных сэмплов тишиной : Да
Удаление блоков с тишиной в начале и конце : Нет
При вычислениях CRC использовались нулевые сэмплы : Да
Интерфейс : Встроенный Win32-интерфейс для Win NT/2000

Выходной формат : Внутренние WAV-операции
Формат сэмплов : 44.100 Гц; 16 бит; стерео


TOC извлечённого CD

Трек | Старт | Длительность | Начальный сектор | Конечный сектор
---------------------------------------------------------------------
1 | 0:00.00 | 4:15.45 | 0 | 19169
2 | 4:15.45 | 5:00.35 | 19170 | 41704
3 | 9:16.05 | 5:13.65 | 41705 | 65244
4 | 14:29.70 | 4:18.10 | 65245 | 84604
5 | 18:48.05 | 4:11.35 | 84605 | 103464
6 | 22:59.40 | 4:20.45 | 103465 | 123009
7 | 27:20.10 | 4:27.70 | 123010 | 143104
8 | 31:48.05 | 5:58.05 | 143105 | 169959
9 | 37:46.10 | 8:24.47 | 169960 | 207806


Характеристики диапазона извлечения и сообщения об ошибках

Выбранный диапазон

Имя файла F:\MusicCD\Torrent\B.B. King - There Is Always One More Time\B.B. King - There Is Always One More Time.wav

Пиковый уровень 100.0 %
Скорость извлечения 7.3 X
Качество диапазона 100.0 %
CRC теста 338B3FF4
CRC копии 338B3FF4
Копирование... OK

Ошибок не произошло


AccurateRip: сводка

Трек 1 : извлечено точно (доверие 28) [2CDA2120] (AR v2)
Трек 2 : извлечено точно (доверие 28) [76DED08E] (AR v2)
Трек 3 : извлечено точно (доверие 28) [374B6972] (AR v2)
Трек 4 : извлечено точно (доверие 28) [8A56076E] (AR v2)
Трек 5 : извлечено точно (доверие 28) [805820A8] (AR v2)
Трек 6 : извлечено точно (доверие 28) [3DDE8BB5] (AR v2)
Трек 7 : извлечено точно (доверие 28) [8B0FA8E9] (AR v2)
Трек 8 : извлечено точно (доверие 27) [779CD58B] (AR v2)
Трек 9 : извлечено точно (доверие 28) [174AF2EA] (AR v2)

Все треки извлечены точно

Конец отчёта

---- CUETools DB Plugin V2.1.6

[CTDB TOCID: mRmLkx4n2jjTOaOrhwS64lYLLok-] found
Submit result: mRmLkx4n2jjTOaOrhwS64lYLLok- has been confirmed
Track | CTDB Status
1 | (16/17) Accurately ripped
2 | (17/17) Accurately ripped
3 | (17/17) Accurately ripped
4 | (17/17) Accurately ripped
5 | (16/17) Accurately ripped
6 | (16/17) Accurately ripped
7 | (16/17) Accurately ripped
8 | (16/17) Accurately ripped
9 | (17/17) Accurately ripped


==== Контрольная сумма отчёта 0BC89924B3D9F11D02B9850B919EB9C6A4D019EE3480E0678AC690194E15BA30 ====
-----------------------

DON'T MODIFY THIS FILE

-----------------------

PERFORMER: auCDtect Task Manager, ver. 1.6.0 RC1 build 1.6.0.1
Copyright (c) 2008-2010 y-soft. All rights reserved


ANALYZER: auCDtect: CD records authenticity detector, version 0.8.2
Copyright (c) 2004 Oleg Berngardt. All rights reserved.
Copyright (c) 2004 Alexander Djourik. All rights reserved.


FILE: B.B. King - There Is Always One More Time.flac
Size: 308832441 Hash: 20694BE0CEDA1F214BA28020317A8423 Accuracy: -m0
Conclusion: CDDA 100%
Signature: BFEE190E1D9E8381D714FD3D730EF25F269BD075
foobar2000 1.3.8 / Dynamic Range Meter 1.1.1
log date: 2015-04-26 19:39:21

--------------------------------------------------------------------------------
Analyzed: B.B. King / There Is Always One More Time
--------------------------------------------------------------------------------

DR Peak RMS Duration Track
--------------------------------------------------------------------------------
DR10 -0.31 dB -11.82 dB 4:16 01-I'm Moving On
DR11 -0.41 dB -12.57 dB 5:00 02-Back In L.A.
DR11 -0.41 dB -12.85 dB 5:14 03-The Blues Come Over Me
DR11 -0.22 dB -12.47 dB 4:18 04-Fool Me Once
DR9 -0.22 dB -11.52 dB 4:11 05-The Lowdown
DR10 -0.36 dB -12.14 dB 4:21 06-Mean And Evil
DR11 -0.16 dB -12.73 dB 4:28 07-Something Up My Sleeve
DR10 -0.02 dB -11.87 dB 5:58 08-Roll, Roll, Roll
DR10 0.00 dB -12.32 dB 8:25 09-There Is Always One More Time
--------------------------------------------------------------------------------

Number of tracks: 9
Official DR value: DR10

Samplerate: 44100 Hz
Channels: 2
Bits per sample: 16
Bitrate: 892 kbps
Codec: FLAC
================================================================================
01. B.B. King - I'm Moving On [4:16]
02. B.B. King - Back In L.A. [5:00]
03. B.B. King - The Blues Come Over Me [5:14]
04. B.B. King - Fool Me Once [4:18]
05. B.B. King - The Lowdown [4:11]
06. B.B. King - Mean And Evil [4:21]
07. B.B. King - Something Up My Sleeve [4:28]
08. B.B. King - Roll, Roll, Roll [5:58]
09. B.B. King - There Is Always One More Time [8:25]
--------------------------
Total time: [46:10]


Notes:
=====================
Ⓟ 1991 MCA Records
Ⓒ 1991 MCA Records
 
Последнее редактирование модератором:

sergych

Ёшкин кот
VIP
Сообщения
2,236
Реакции
8,407
1993 - The King Of The Blues. The Blues Collection



Исполнитель/Artist: B.B. King
Альбом/Album: The King Of The Blues. The Blues Collection
Год/Year: 1993
Жанр/Genre: Blues
Страна/Country: Франция
Рекорд-лейбл/Record label: Editions Atlas
Номер в каталоге/Catalogue #: BLU NC 002
Формат/Format: Free Lossless Audio Codec (*.flac)
Качество/Quality: Lossless
Тип рипа/RIP Type: image+.cue
Продолжительность/Length: 00:52:37
Источник/Source: Собственный рип
Размер/Size: 285.3 MB

Сканы в комплекте

01. The Thrill Is Gone [0:05:04.53]
02. Guess Who [0:05:47.45]
03. Payin' The Cost To Be The Boss [0:06:10.72]
04. Everyday I Have The Blues [0:04:59.23]
05. The Letter [0:03:30.25]
06. Sweet Sixteen [0:04:17.12]
07. How Blue Can You Get [0:03:28.10]
08. Please Love Me [0:02:48.68]
09. Outside Help [0:06:54.70]
10. Recession Blues [0:02:21.60]
11. Don't Keep Me Waiting [0:02:17.25]
12. Tickle Britches [0:02:31.00]
13. Don't Break Your Promise [0:02:23.72]


Exact Audio Copy V1.1 from 23. June 2015

EAC extraction logfile from 12. November 2015, 19:04

B.B. King / The King Of The Blues. The Blues Collection

Used drive : ATAPI iHAS124 D Adapter: 0 ID: 2

Read mode : Secure
Utilize accurate stream : Yes
Defeat audio cache : Yes
Make use of C2 pointers : No

Read offset correction : 6
Overread into Lead-In and Lead-Out : No
Fill up missing offset samples with silence : Yes
Delete leading and trailing silent blocks : No
Null samples used in CRC calculations : Yes
Used interface : Installed external ASPI interface

Used output format : User Defined Encoder
Selected bitrate : 1024 kBit/s
Quality : High
Add ID3 tag : Yes
Command line compressor : C:\Program Files (x86)\Exact Audio Copy\Flac\flac.exe
Additional command line options : -6 -V -T "ARTIST=%artist%" -T "TITLE=%title%" -T "ALBUM=%albumtitle%" -T "DATE=%year%" -T "TRACKNUMBER=%tracknr%" -T "GENRE=%genre%" -T "COMMENT=%comment%" -T "BAND=%albuminterpret%" -T "COMPOSER=%composer%" %haslyrics%--tag-from-file=LYRICS="%lyricsfile%"%haslyrics% -T "DISCNUMBER=%cdnumber%" -T "TOTALDISCS=%totalcds%" -T "TOTALTRACKS=%numtracks%" %hascover%--picture="%coverfile%"%hascover% %source% -o %dest%


TOC of the extracted CD

Track | Start | Length | Start sector | End sector
---------------------------------------------------------
1 | 0:00.32 | 5:04.53 | 32 | 22884
2 | 5:05.10 | 5:47.45 | 22885 | 48954
3 | 10:52.55 | 6:10.72 | 48955 | 76776
4 | 17:03.52 | 4:59.23 | 76777 | 99224
5 | 22:03.00 | 3:30.25 | 99225 | 114999
6 | 25:33.25 | 4:17.12 | 115000 | 134286
7 | 29:50.37 | 3:28.10 | 134287 | 149896
8 | 33:18.47 | 2:48.68 | 149897 | 162564
9 | 36:07.40 | 6:54.70 | 162565 | 193684
10 | 43:02.35 | 2:21.60 | 193685 | 204319
11 | 45:24.20 | 2:17.25 | 204320 | 214619
12 | 47:41.45 | 2:31.00 | 214620 | 225944
13 | 50:12.45 | 2:23.72 | 225945 | 236741


Range status and errors

Selected range

Filename C:\mm\B.B. King\1993 - The King Of The Blues. The Blues Collection [BLU NC 002]\B.B. King - The King Of The Blues. The Blues Collection.wav

Peak level 100.0 %
Extraction speed 8.7 X
Range quality 100.0 %
Test CRC 181A1767
Copy CRC 181A1767
Copy OK

No errors occurred


AccurateRip summary

Track 1 accurately ripped (confidence 26) [A1C269EF] (AR v2)
Track 2 accurately ripped (confidence 26) [B0B9C5C1] (AR v2)
Track 3 accurately ripped (confidence 26) [EA2BBDDC] (AR v2)
Track 4 accurately ripped (confidence 26) [FB827370] (AR v2)
Track 5 accurately ripped (confidence 26) [52E0C54A] (AR v2)
Track 6 accurately ripped (confidence 26) [CC9C201F] (AR v2)
Track 7 accurately ripped (confidence 26) [E62CEB7A] (AR v2)
Track 8 accurately ripped (confidence 25) [4DA59FD1] (AR v2)
Track 9 accurately ripped (confidence 25) [58ACC932] (AR v2)
Track 10 accurately ripped (confidence 25) [9A2974B3] (AR v2)
Track 11 accurately ripped (confidence 25) [2E397499] (AR v2)
Track 12 accurately ripped (confidence 25) [FD9FE97C] (AR v2)
Track 13 accurately ripped (confidence 25) [A8CF9B1E] (AR v2)

All tracks accurately ripped

End of status report
AUDIOCHECKER v2.0 beta (build 457) - by Dester - [email protected]
~~~~~~~~~~~~~~~~~~~~~~~~~~~~~~~~~~
-=== НЕ РЕДАКТИРУЙТЕ ЭТОТ ФАЙЛ! ===-

Путь: ...\1993 - The King Of The Blues. The Blues Collection [BLU NC 002]

1 -=- B.B. King - The King Of The Blues. The Blues Collection.flac -=- CDDA (100%)

246958548
 
Последнее редактирование:

sergych

Ёшкин кот
VIP
Сообщения
2,236
Реакции
8,407
1995 - Kansas City, 1972



Исполнитель/Artist: B.B. King
Альбом/Album: Kansas City, 1972
Год/Year: 1995
Жанр/Genre: Blues
Страна/Country: Испания
Рекорд-лейбл/Record label: Edicionec Altaya
Номер в каталоге/Catalogue #: BB 001
Формат/Format: Free Lossless Audio Codec (*.flac)
Качество/Quality: Lossless
Тип рипа/RIP Type: image+.cue
Продолжительность/Length: 00:46:19
Источник/Source: Собственный рип
Размер/Size: 263.2 MB

Сканы в комплекте

01. Introduction [0:03:29.67]
02. The Thrill Is Gone [0:05:04.20]
03. Sweet Little Angel [0:05:11.30]
04. Nobody Loves Me But My Mother [0:04:50.20]
05. Guess Who? [0:03:51.40]
06. King's Shuffle [0:03:17.13]
07. Outside Help [0:07:38.02]
08. I've Got A Mind To Give Up Living [0:05:31.65]
09. Ain't Nobody Home [0:07:23.68]


Exact Audio Copy V1.1 from 23. June 2015

EAC extraction logfile from 12. November 2015, 19:58

B.B. King / Kansas City, 1972

Used drive : ATAPI iHAS124 D Adapter: 0 ID: 2

Read mode : Secure
Utilize accurate stream : Yes
Defeat audio cache : Yes
Make use of C2 pointers : No

Read offset correction : 6
Overread into Lead-In and Lead-Out : No
Fill up missing offset samples with silence : Yes
Delete leading and trailing silent blocks : No
Null samples used in CRC calculations : Yes
Used interface : Installed external ASPI interface

Used output format : User Defined Encoder
Selected bitrate : 1024 kBit/s
Quality : High
Add ID3 tag : Yes
Command line compressor : C:\Program Files (x86)\Exact Audio Copy\Flac\flac.exe
Additional command line options : -6 -V -T "ARTIST=%artist%" -T "TITLE=%title%" -T "ALBUM=%albumtitle%" -T "DATE=%year%" -T "TRACKNUMBER=%tracknr%" -T "GENRE=%genre%" -T "COMMENT=%comment%" -T "BAND=%albuminterpret%" -T "COMPOSER=%composer%" %haslyrics%--tag-from-file=LYRICS="%lyricsfile%"%haslyrics% -T "DISCNUMBER=%cdnumber%" -T "TOTALDISCS=%totalcds%" -T "TOTALTRACKS=%numtracks%" %hascover%--picture="%coverfile%"%hascover% %source% -o %dest%


TOC of the extracted CD

Track | Start | Length | Start sector | End sector
---------------------------------------------------------
1 | 0:00.33 | 3:29.67 | 33 | 15774
2 | 3:30.25 | 5:04.20 | 15775 | 38594
3 | 8:34.45 | 5:11.30 | 38595 | 61949
4 | 13:46.00 | 4:50.20 | 61950 | 83719
5 | 18:36.20 | 3:51.40 | 83720 | 101084
6 | 22:27.60 | 3:17.13 | 101085 | 115872
7 | 25:44.73 | 7:38.02 | 115873 | 150224
8 | 33:23.00 | 5:31.65 | 150225 | 175114
9 | 38:54.65 | 7:23.68 | 175115 | 208407


Range status and errors

Selected range

Filename C:\mm\B.B. King\1995 - Kansas City, 1972 [BB 001]\B.B. King - Kansas City, 1972.wav

Peak level 86.7 %
Extraction speed 8.3 X
Range quality 100.0 %
Test CRC B14B9967
Copy CRC B14B9967
Copy OK

No errors occurred


AccurateRip summary

Track 1 accurately ripped (confidence 5) [E5B34A07] (AR v2)
Track 2 accurately ripped (confidence 5) [F5D6C896] (AR v2)
Track 3 accurately ripped (confidence 5) [66328887] (AR v2)
Track 4 accurately ripped (confidence 5) [E6430724] (AR v2)
Track 5 accurately ripped (confidence 5) [5209754B] (AR v2)
Track 6 accurately ripped (confidence 5) [219F615E] (AR v2)
Track 7 accurately ripped (confidence 5) [DF0CE938] (AR v2)
Track 8 accurately ripped (confidence 5) [7129CA63] (AR v2)
Track 9 accurately ripped (confidence 5) [6C48ED37] (AR v2)

All tracks accurately ripped

End of status report
AUDIOCHECKER v2.0 beta (build 457) - by Dester - [email protected]
~~~~~~~~~~~~~~~~~~~~~~~~~~~~~~~~~~
-=== НЕ РЕДАКТИРУЙТЕ ЭТОТ ФАЙЛ! ===-

Путь: ...\1995 - Kansas City, 1972 [BB 001]

1 -=- B.B. King - Kansas City, 1972.flac -=- CDDA (100%)

129178324
 
Последнее редактирование:

sergych

Ёшкин кот
VIP
Сообщения
2,236
Реакции
8,407
1970 - Indianola Mississippi Seeds



Исполнитель/Artist: B.B. King
Альбом/Album: Indianola Mississippi Seeds
Год/Year: 1970
Жанр/Genre: Blues Rock, Blues
Страна/Country: Соединённые Штаты
Рекорд-лейбл/Record label: MCA Records
Номер в каталоге/Catalogue #: MCAD-31343
Формат/Format: Free Lossless Audio Codec (*.flac)
Качество/Quality: Lossless
Тип рипа/RIP Type: image+.cue
Продолжительность/Length: 00:39:32
Источник/Source: Собственный рип
Размер/Size: 224.7 MB

Сканы в комплекте

01. Nobody Loves Me but My Mother [0:01:26.54]
02. You're Still My Woman [0:06:04.68]
03. Ask Me No Questions [0:03:08.43]
04. Until I'm Dead and Cold [0:04:45.30]
05. King's Special [0:05:10.57]
06. Ain't Gonna Worry My Life Anymore [0:05:20.10]
07. Chains and Things [0:04:53.55]
08. Go Underground [0:04:03.10]
09. Hummingbird [0:04:38.45]


B.B. King - vocals, guitar, piano
Hugh McCracken, Joe Walsh - guitar
Paul Harris - piano
Carole King, Leon Russell - keyboards
Bryan Garofalo, Gerald Jemmott - bass
Russ Kunkel, Herb Lovelle - drums
Sherlie Matthews, Merry Clayton, Clydie King, Venetta Fields - background vocals
Exact Audio Copy V1.1 from 23. June 2015

EAC extraction logfile from 29. November 2015, 14:25

B.B. King / Indianola Mississippi Seeds

Used drive : ATAPI iHAS124 D Adapter: 0 ID: 2

Read mode : Secure
Utilize accurate stream : Yes
Defeat audio cache : Yes
Make use of C2 pointers : No

Read offset correction : 6
Overread into Lead-In and Lead-Out : No
Fill up missing offset samples with silence : Yes
Delete leading and trailing silent blocks : No
Null samples used in CRC calculations : Yes
Used interface : Installed external ASPI interface

Used output format : User Defined Encoder
Selected bitrate : 1024 kBit/s
Quality : High
Add ID3 tag : Yes
Command line compressor : C:\Program Files (x86)\Exact Audio Copy\Flac\flac.exe
Additional command line options : -6 -V -T "ARTIST=%artist%" -T "TITLE=%title%" -T "ALBUM=%albumtitle%" -T "DATE=%year%" -T "TRACKNUMBER=%tracknr%" -T "GENRE=%genre%" -T "COMMENT=%comment%" -T "BAND=%albuminterpret%" -T "COMPOSER=%composer%" %haslyrics%--tag-from-file=LYRICS="%lyricsfile%"%haslyrics% -T "DISCNUMBER=%cdnumber%" -T "TOTALDISCS=%totalcds%" -T "TOTALTRACKS=%numtracks%" %hascover%--picture="%coverfile%"%hascover% %source% -o %dest%


TOC of the extracted CD

Track | Start | Length | Start sector | End sector
---------------------------------------------------------
1 | 0:00.00 | 1:26.54 | 0 | 6503
2 | 1:26.54 | 6:04.68 | 6504 | 33871
3 | 7:31.47 | 3:08.43 | 33872 | 48014
4 | 10:40.15 | 4:45.30 | 48015 | 69419
5 | 15:25.45 | 5:10.57 | 69420 | 92726
6 | 20:36.27 | 5:20.10 | 92727 | 116736
7 | 25:56.37 | 4:53.55 | 116737 | 138766
8 | 30:50.17 | 4:03.10 | 138767 | 157001
9 | 34:53.27 | 4:38.45 | 157002 | 177896


Range status and errors

Selected range

Filename C:\mm\BB King\1970 - Indianola Mississippi Seeds [MCAD-31343]\B.B. King - Indianola Mississippi Seeds.wav

Peak level 99.9 %
Extraction speed 8.8 X
Range quality 100.0 %
Test CRC 09D456F0
Copy CRC 09D456F0
Copy OK

No errors occurred


AccurateRip summary

Track 1 accurately ripped (confidence 21) [BC4E7775] (AR v2)
Track 2 accurately ripped (confidence 21) [E84A31F4] (AR v2)
Track 3 accurately ripped (confidence 20) [56FB83B9] (AR v2)
Track 4 accurately ripped (confidence 21) [54C29B95] (AR v2)
Track 5 accurately ripped (confidence 21) [9D4338F5] (AR v2)
Track 6 accurately ripped (confidence 20) [2AF4A20B] (AR v2)
Track 7 accurately ripped (confidence 21) [33C8B893] (AR v2)
Track 8 accurately ripped (confidence 20) [08C35CF2] (AR v2)
Track 9 accurately ripped (confidence 21) [A8F6AA8B] (AR v2)

All tracks accurately ripped

End of status report
AUDIOCHECKER v2.0 beta (build 457) - by Dester - [email protected]
~~~~~~~~~~~~~~~~~~~~~~~~~~~~~~~~~~
-=== НЕ РЕДАКТИРУЙТЕ ЭТОТ ФАЙЛ! ===-

Путь: ...\1970 - Indianola Mississippi Seeds [MCAD-31343]

1 -=- B.B. King - Indianola Mississippi Seeds.flac -=- CDDA (100%)

188665460
 
Последнее редактирование:

aheron

Гуру
VIP
Сообщения
15,712
Реакции
18,823
B.B. King - There Must Be A Better World Somewhere (1981)





Performer: B.B. King
Album: There Must Be A Better World Somewhere
Label: MCA Records. Made in US.
Catalog #: MCAD-27034
Style: Electric Blues
Year: 1981 (Reissue 199?)
Format: FLAC (image + .cue)
Bitrate: lossless
Covers: in archive
Amount of tracks: 6
Size ZIP: ~ 216 mb

Exact Audio Copy V1.1 from 23. June 2015

Отчёт EAC об извлечении, выполненном 13. февраля 2016, 19:54

B.B. King / There Must Be A Better World Somewhere

Дисковод: SONY CD-RW CRX230ED Adapter: 1 ID: 0

Режим чтения : Достоверность
Использование точного потока : Да
Отключение кэша аудио : Да
Использование указателей C2 : Нет

Коррекция смещения при чтении : 6
Способность читать области Lead-in и Lead-out : Нет
Заполнение пропущенных сэмплов тишиной : Да
Удаление блоков с тишиной в начале и конце : Нет
При вычислениях CRC использовались нулевые сэмплы : Да
Интерфейс : Встроенный Win32-интерфейс для Win NT/2000

Выходной формат : Внутренние WAV-операции
Формат сэмплов : 44.100 Гц; 16 бит; стерео


TOC извлечённого CD

Трек | Старт | Длительность | Начальный сектор | Конечный сектор
---------------------------------------------------------------------
1 | 0:00.00 | 6:14.72 | 0 | 28121
2 | 6:14.72 | 8:32.68 | 28122 | 66589
3 | 14:47.65 | 5:41.35 | 66590 | 92199
4 | 20:29.25 | 6:19.27 | 92200 | 120651
5 | 26:48.52 | 4:39.03 | 120652 | 141579
6 | 31:27.55 | 4:33.05 | 141580 | 162059


Характеристики диапазона извлечения и сообщения об ошибках

Выбранный диапазон

Имя файла F:\MusicCD\Torrent\B.B. King - There Must Be A Better World Somewhere\B.B. King - There Must Be A Better World Somewhere.wav

Пиковый уровень 95.8 %
Скорость извлечения 7.2 X
Качество диапазона 100.0 %
CRC теста 601FBD50
CRC копии 601FBD50
Копирование... OK

Ошибок не произошло


AccurateRip: сводка

Трек 1 : извлечено точно (доверие 2) [8DF304FC] (AR v2)
Трек 2 : извлечено точно (доверие 2) [CAF63B67] (AR v2)
Трек 3 : извлечено точно (доверие 2) [182450F0] (AR v2)
Трек 4 : извлечено точно (доверие 2) [B9924ADC] (AR v2)
Трек 5 : извлечено точно (доверие 2) [062F798C] (AR v2)
Трек 6 : извлечено точно (доверие 2) [1088F640] (AR v2)

Все треки извлечены точно

Конец отчёта

---- CUETools DB Plugin V2.1.6

[CTDB TOCID: 2yVUifeGL4nz12JZ5qKeO0L6qfg-] found
Submit result: 2yVUifeGL4nz12JZ5qKeO0L6qfg- has been confirmed
Track | CTDB Status
1 | (4/4) Accurately ripped
2 | (4/4) Accurately ripped
3 | (4/4) Accurately ripped
4 | (4/4) Accurately ripped
5 | (4/4) Accurately ripped
6 | (4/4) Accurately ripped


==== Контрольная сумма отчёта 42C3FE54706BF5B887348F77B8F39979370698307DF49BFAE2833D7730ED2847 ====
-----------------------

DON'T MODIFY THIS FILE

-----------------------

PERFORMER: auCDtect Task Manager, ver. 1.6.0 RC1 build 1.6.0.1
Copyright (c) 2008-2010 y-soft. All rights reserved


ANALYZER: auCDtect: CD records authenticity detector, version 0.8.2
Copyright (c) 2004 Oleg Berngardt. All rights reserved.
Copyright (c) 2004 Alexander Djourik. All rights reserved.


FILE: B.B. King - There Must Be A Better World Somewhere.flac
Size: 195142514 Hash: 2F6E89E7D39E58E40C154A29A8062D54 Accuracy: -m0
Conclusion: CDDA 100%
Signature: 572740C6F728952BF9C09CABEAAA2075381F0C1F
foobar2000 1.3.9 / Dynamic Range Meter 1.1.1
log date: 2016-02-24 21:21:00

--------------------------------------------------------------------------------
Analyzed: B.B. King / There Must Be A Better World Somewhere
--------------------------------------------------------------------------------

DR Peak RMS Duration Track
--------------------------------------------------------------------------------
DR15 -1.16 dB -19.46 dB 6:15 01-Life Ain't Nothing But A Party
DR16 -0.55 dB -19.59 dB 8:33 02-Born Again Human
DR14 -2.35 dB -19.27 dB 5:41 03-There Must Be A Better World Somewhere
DR14 -1.68 dB -18.41 dB 6:19 04-The Victim
DR14 -2.59 dB -20.15 dB 4:39 05-More, More, More
DR16 -0.37 dB -18.73 dB 4:33 06-You're Going With Me
--------------------------------------------------------------------------------

Number of tracks: 6
Official DR value: DR15

Samplerate: 44100 Hz
Channels: 2
Bits per sample: 16
Bitrate: 722 kbps
Codec: FLAC
================================================================================
01. B.B. King - Life Ain't Nothing But A Party [6:15]
02. B.B. King - Born Again Human [8:33]
03. B.B. King - There Must Be A Better World Somewhere [5:41]
04. B.B. King - The Victim [6:19]
05. B.B. King - More, More, More [4:39]
06. B.B. King - You're Going With Me [4:33]
--------------------------
Total time: [36:00]


Credits:
================
Bass – Wilbur Bascomb
Drums – Bernard Purdie
Guitar – Hugh McCracken
Guitar, Vocals – B.B. King
Keyboards – Dr. John
Saxophone [Alto] – Hank Crawford
Saxophone [Baritone] – Ronald E Cuber
Saxophone [Tenor] – David "Fathead" Newman
Trombone – Tom Malone
Trumpet – Charlie Miller, Waymon Reed

Notes:
=====================
Ⓟ 1981 MCA Records, Inc.
Ⓒ 1981 MCA Records, Inc.

Recorded at The Hit Factory, N.Y.C.
 
Последнее редактирование:
Сверху