aheron

Гуру
VIP
Сообщения
15,712
Реакции
18,823




 

aheron

Гуру
VIP
Сообщения
15,712
Реакции
18,823
Fausto Papetti - Magic Sax (1987)



Performer: Fausto Papetti
Album: Magic Sax (1987)
Label: CBS Dishi S.p.A. Made in Holland.
Catalog #: CBS 450960 2
Style: Instrumental, Saxophone
Year: 1987
Format: FLAC (image +.cue)
Bitrate: lossless
Covers: in archive
Amount of tracks: 18
Size ZIP: ~ 378 mb

Exact Audio Copy V0.99 prebeta 4 from 23. January 2008

Отчёт EAC об извлечении, выполненном 16. августа 2009, 14:38

Fausto Papetti / Magic Sax

Дисковод: TSSTcorpCDDVDW SH-S202J Adapter: 1 ID: 1

Режим чтения : Достоверность
Использование точного потока : Да
Отключение кэша аудио : Да
Использование указателей C2 : Нет

Коррекция смещения при чтении : 6
Способность читать области Lead-in и Lead-out : Нет
Заполнение пропущенных сэмплов тишиной : Да
Удаление блоков с тишиной в начале и конце : Нет
При вычислениях CRC использовались нулевые сэмплы : Да
Интерфейс : Установленный внешний ASPI-интерфейс

Выходной формат : Внутренние WAV-операции
Формат сэмплов : 44.100 Гц; 16 бит; стерео


TOC извлечённого CD

Трек | Старт | Длительность | Начальный сектор | Конечный сектор
---------------------------------------------------------------------
1 | 0:00.00 | 3:53.00 | 0 | 17474
2 | 3:53.00 | 2:55.00 | 17475 | 30599
3 | 6:48.00 | 3:51.60 | 30600 | 47984
4 | 10:39.60 | 3:40.00 | 47985 | 64484
5 | 14:19.60 | 4:14.00 | 64485 | 83534
6 | 18:33.60 | 3:25.07 | 83535 | 98916
7 | 21:58.67 | 3:03.00 | 98917 | 112641
8 | 25:01.67 | 2:10.53 | 112642 | 122444
9 | 27:12.45 | 2:39.12 | 122445 | 134381
10 | 29:51.57 | 3:17.50 | 134382 | 149206
11 | 33:09.32 | 4:28.35 | 149207 | 169341
12 | 37:37.67 | 3:38.18 | 169342 | 185709
13 | 41:16.10 | 2:41.05 | 185710 | 197789
14 | 43:57.15 | 3:37.72 | 197790 | 214136
15 | 47:35.12 | 3:17.63 | 214137 | 228974
16 | 50:53.00 | 3:50.55 | 228975 | 246279
17 | 54:43.55 | 3:04.35 | 246280 | 260114
18 | 57:48.15 | 4:17.62 | 260115 | 279451


Характеристики диапазона извлечения и сообщения об ошибках

Выбранный диапазон

Имя файла E:\РОЗДАЧА\Fausto Papetti - Magic Sax.wav

Пиковый уровень 97.5 %
Качество диапазона 100.0 %
CRC теста D925E252
CRC копии D925E252
Копирование... OK

Ошибок не произошло

Конец отчёта
-----------------------

DON'T MODIFY THIS FILE

-----------------------

PERFORMER: auCDtect Task Manager, ver. 1.6.0 RC1 build 1.6.0.1
Copyright (c) 2008-2010 y-soft. All rights reserved


ANALYZER: auCDtect: CD records authenticity detector, version 0.8.2
Copyright (c) 2004 Oleg Berngardt. All rights reserved.
Copyright (c) 2004 Alexander Djourik. All rights reserved.


FILE: Fausto Papetti - Magic Sax.flac
Size: 394277154 Hash: 6FFA32AB2156C5D106D5517313452A76 Accuracy: -m0
Conclusion: CDDA 99%
Signature: 886FEA6EE4DCBCCC957401FC7A27AE93BB6A81B8
foobar2000 1.2.8 / Dynamic Range Meter 1.1.1
log date: 2013-10-22 00:30:42

--------------------------------------------------------------------------------
Analyzed: Fausto Papetti / Magic Sax
--------------------------------------------------------------------------------

DR Peak RMS Duration Track
--------------------------------------------------------------------------------
DR12 -0.18 dB -14.50 dB 3:53 01-Smile
DR12 -1.02 dB -15.98 dB 2:55 02-I'm On Fire
DR11 -2.61 dB -17.29 dB 3:52 03-Aranjuez Mon Amour
DR11 -0.68 dB -15.97 dB 3:40 04-Part-Time Lover
DR11 -1.78 dB -16.10 dB 4:14 05-Maria La O
DR12 -0.94 dB -15.71 dB 3:25 06-Magic Moon
DR11 -1.79 dB -15.73 dB 3:03 07-Blue Spanish Eyes
DR13 -1.13 dB -15.90 dB 2:11 08-You Are The Sunshine Of My Life
DR13 -1.62 dB -16.40 dB 2:39 09-Ebb Tide
DR14 0.00 dB -15.87 dB 3:18 10-Girl From Ipanema
DR11 -3.38 dB -17.28 dB 4:28 11-Gisselle
DR13 -0.61 dB -17.70 dB 3:38 12-This is Not America
DR11 -2.63 dB -16.88 dB 2:41 13-Hymne
DR13 -1.85 dB -17.53 dB 3:38 14-Bossa For My Lady
DR13 -1.22 dB -17.37 dB 3:18 15-Mack The Knife
DR12 -1.15 dB -15.75 dB 3:51 16-Just The Way You Are
DR13 -1.32 dB -16.80 dB 3:04 17-Love Letters In The Sand
DR13 -0.86 dB -16.60 dB 4:18 18-BirdLand
--------------------------------------------------------------------------------

Number of tracks: 18
Official DR value: DR12

Samplerate: 44100 Hz
Channels: 2
Bits per sample: 16
Bitrate: 847 kbps
Codec: FLAC
================================================================================
01. Fausto Papetti - Smile [3:53]
02. Fausto Papetti - I'm On Fire [2:55]
03. Fausto Papetti - Aranjuez Mon Amour [3:52]
04. Fausto Papetti - Part-Time Lover [3:40]
05. Fausto Papetti - Maria La O [4:14]
06. Fausto Papetti - Magic Moon [3:25]
07. Fausto Papetti - Blue Spanish Eyes [3:03]
08. Fausto Papetti - You Are The Sunshine Of My Life [2:11]
09. Fausto Papetti - Ebb Tide [2:39]
10. Fausto Papetti - Girl From Ipanema [3:18]
11. Fausto Papetti - Gisselle [4:28]
12. Fausto Papetti - This is Not America [3:38]
13. Fausto Papetti - Hymne [2:41]
14. Fausto Papetti - Bossa For My Lady [3:38]
15. Fausto Papetti - Mack The Knife [3:18]
16. Fausto Papetti - Just The Way You Are [3:51]
17. Fausto Papetti - Love Letters In The Sand [3:04]
18. Fausto Papetti - BirdLand [4:18]
--------------------------
Total time [1:02:06]


На заднике указано Holland, на диске - Austria, и кат.номер там не указан.. Похоже, сканы левые, аудиофайл распознаётся как из исходного CDDA.
 
Последнее редактирование модератором:

aheron

Гуру
VIP
Сообщения
15,712
Реакции
18,823
Fausto Papetti - The Best [2CD] (2003)



Performer: Fausto Papetti
Album: The Best [2CD]
Label: G.G.K. Art Studio
Catalog #: b070-1/2
Style: Instrumental, Saxophone
Year: 2003
Format: FLAC (image + .cue)
Bitrate: lossless
Covers: in archive
Amount of tracks: 50
Size ZIP: ~ 880 mb

Exact Audio Copy V0.99 prebeta 4 from 23. January 2008

EAC extraction logfile from 2. September 2010, 17:03

Fausto Papetti / The Best (CD1)

Used drive : TOSHIBA DVD-ROM SD-R5002 Adapter: 0 ID: 0

Read mode : Secure
Utilize accurate stream : Yes
Defeat audio cache : Yes
Make use of C2 pointers : No

Read offset correction : 116
Overread into Lead-In and Lead-Out : No
Fill up missing offset samples with silence : Yes
Delete leading and trailing silent blocks : No
Null samples used in CRC calculations : Yes
Used interface : Installed external ASPI interface

Used output format : Monkey's Audio Lossless Encoder
Selected bitrate : High Lossless Compression
Quality : High
Add ID3 tag : Yes
Command line compressor : C:\Program Files\Monkey's Audio\MAC.exe


TOC of the extracted CD

Track | Start | Length | Start sector | End sector
---------------------------------------------------------
1 | 0:00.00 | 3:33.23 | 0 | 15997
2 | 3:33.23 | 3:08.71 | 15998 | 30168
3 | 6:42.19 | 3:36.24 | 30169 | 46392
4 | 10:18.43 | 2:54.23 | 46393 | 59465
5 | 13:12.66 | 3:32.35 | 59466 | 75400
6 | 16:45.26 | 3:19.57 | 75401 | 90382
7 | 20:05.08 | 3:38.69 | 90383 | 106801
8 | 23:44.02 | 2:54.57 | 106802 | 119908
9 | 26:38.59 | 3:08.64 | 119909 | 134072
10 | 29:47.48 | 1:51.06 | 134073 | 142403
11 | 31:38.54 | 2:13.06 | 142404 | 152384
12 | 33:51.60 | 2:33.12 | 152385 | 163871
13 | 36:24.72 | 3:02.15 | 163872 | 177536
14 | 39:27.12 | 2:39.41 | 177537 | 189502
15 | 42:06.53 | 3:30.32 | 189503 | 205284
16 | 45:37.10 | 3:00.02 | 205285 | 218786
17 | 48:37.12 | 2:31.42 | 218787 | 230153
18 | 51:08.54 | 2:24.40 | 230154 | 240993
19 | 53:33.19 | 2:02.19 | 240994 | 250162
20 | 55:35.38 | 3:13.10 | 250163 | 264647
21 | 58:48.48 | 3:03.42 | 264648 | 278414
22 | 61:52.15 | 3:30.16 | 278415 | 294180
23 | 65:22.31 | 3:07.15 | 294181 | 308220
24 | 68:29.46 | 3:42.45 | 308221 | 324915
25 | 72:12.16 | 3:29.12 | 324916 | 340602


Range status and errors

Selected range

Filename C:\Documents and Settings\The Best (CD1)\Fausto Papetti - The Best (CD1).wav

Peak level 98.2 %
Range quality 100.0 %
Test CRC 2197CA1D
Copy CRC 2197CA1D
Copy OK

No errors occurred


AccurateRip summary

Track 1 not present in database
Track 2 not present in database
Track 3 not present in database
Track 4 not present in database
Track 5 not present in database
Track 6 not present in database
Track 7 not present in database
Track 8 not present in database
Track 9 not present in database
Track 10 not present in database
Track 11 not present in database
Track 12 not present in database
Track 13 not present in database
Track 14 not present in database
Track 15 not present in database
Track 16 not present in database
Track 17 not present in database
Track 18 not present in database
Track 19 not present in database
Track 20 not present in database
Track 21 not present in database
Track 22 not present in database
Track 23 not present in database
Track 24 not present in database
Track 25 not present in database

None of the tracks are present in the AccurateRip database

End of status report

///////////////////////////////////////////////////////////////

Exact Audio Copy V0.99 prebeta 4 from 23. January 2008

EAC extraction logfile from 2. September 2010, 17:47

Fausto Papetti / The Best (CD2)

Used drive : TOSHIBA DVD-ROM SD-R5002 Adapter: 0 ID: 0

Read mode : Secure
Utilize accurate stream : Yes
Defeat audio cache : Yes
Make use of C2 pointers : No

Read offset correction : 116
Overread into Lead-In and Lead-Out : No
Fill up missing offset samples with silence : Yes
Delete leading and trailing silent blocks : No
Null samples used in CRC calculations : Yes
Used interface : Installed external ASPI interface

Used output format : Monkey's Audio Lossless Encoder
Selected bitrate : High Lossless Compression
Quality : High
Add ID3 tag : Yes
Command line compressor : C:\Program Files\Monkey's Audio\MAC.exe


TOC of the extracted CD

Track | Start | Length | Start sector | End sector
---------------------------------------------------------
1 | 0:00.00 | 2:55.01 | 0 | 13125
2 | 2:55.01 | 3:14.46 | 13126 | 27721
3 | 6:09.47 | 4:07.09 | 27722 | 46255
4 | 10:16.56 | 2:34.58 | 46256 | 57863
5 | 12:51.39 | 3:49.26 | 57864 | 75064
6 | 16:40.65 | 3:29.32 | 75065 | 90771
7 | 20:10.22 | 2:36.51 | 90772 | 102522
8 | 22:46.73 | 3:11.24 | 102523 | 116871
9 | 25:58.22 | 2:31.17 | 116872 | 128213
10 | 28:29.39 | 2:25.20 | 128214 | 139108
11 | 30:54.59 | 2:16.28 | 139109 | 149336
12 | 33:11.12 | 3:12.70 | 149337 | 163806
13 | 36:24.07 | 4:14.44 | 163807 | 182900
14 | 40:38.51 | 2:19.18 | 182901 | 193343
15 | 42:57.69 | 2:34.26 | 193344 | 204919
16 | 45:32.20 | 2:16.60 | 204920 | 215179
17 | 47:49.05 | 3:33.61 | 215180 | 231215
18 | 51:22.66 | 2:46.46 | 231216 | 243711
19 | 54:09.37 | 2:45.68 | 243712 | 256154
20 | 56:55.30 | 4:02.00 | 256155 | 274304
21 | 60:57.30 | 2:39.40 | 274305 | 286269
22 | 63:36.70 | 3:57.06 | 286270 | 304050
23 | 67:34.01 | 2:25.37 | 304051 | 314962
24 | 69:59.38 | 2:55.73 | 314963 | 328160
25 | 72:55.36 | 3:02.02 | 328161 | 341812


Range status and errors

Selected range

Filename C:\Documents and Settings\The Best (CD2)\Fausto Papetti - The Best (CD2).wav

Peak level 98.3 %
Range quality 99.9 %
Test CRC C29AF1DB
Copy CRC C29AF1DB
Copy OK

No errors occurred


AccurateRip summary

Track 1 not present in database
Track 2 not present in database
Track 3 not present in database
Track 4 not present in database
Track 5 not present in database
Track 6 not present in database
Track 7 not present in database
Track 8 not present in database
Track 9 not present in database
Track 10 not present in database
Track 11 not present in database
Track 12 not present in database
Track 13 not present in database
Track 14 not present in database
Track 15 not present in database
Track 16 not present in database
Track 17 not present in database
Track 18 not present in database
Track 19 not present in database
Track 20 not present in database
Track 21 not present in database
Track 22 not present in database
Track 23 not present in database
Track 24 not present in database
Track 25 not present in database

None of the tracks are present in the AccurateRip database

End of status report
-----------------------

DON'T MODIFY THIS FILE

-----------------------

PERFORMER: auCDtect Task Manager, ver. 1.6.0 RC1 build 1.6.0.1
Copyright (c) 2008-2010 y-soft. All rights reserved


ANALYZER: auCDtect: CD records authenticity detector, version 0.8.2
Copyright (c) 2004 Oleg Berngardt. All rights reserved.
Copyright (c) 2004 Alexander Djourik. All rights reserved.


FILE: Fausto Papetti - The Best (CD1).flac
Size: 458139395 Hash: D3CCA206A2867D696DF327DA130E8495 Accuracy: -m0
Conclusion: CDDA 100%
Signature: B614219989B71207EE9FBBBC881CF32E29CA2768

/////////////////////////////////////////////////////////////////////

-----------------------

DON'T MODIFY THIS FILE

-----------------------

PERFORMER: auCDtect Task Manager, ver. 1.6.0 RC1 build 1.6.0.1
Copyright (c) 2008-2010 y-soft. All rights reserved


ANALYZER: auCDtect: CD records authenticity detector, version 0.8.2
Copyright (c) 2004 Oleg Berngardt. All rights reserved.
Copyright (c) 2004 Alexander Djourik. All rights reserved.


FILE: Fausto Papetti - The Best (CD2).flac
Size: 457084996 Hash: 0DA8EB2F217BEEEA65D3ACE13F097377 Accuracy: -m0
Conclusion: CDDA 100%
Signature: 74ADF4132A26CA2DC56B695F8DC8427A0AA0DF93
foobar2000 1.2.8 / Dynamic Range Meter 1.1.1
log date: 2013-10-22 02:24:31

--------------------------------------------------------------------------------
Analyzed: Fausto Papetti / The Best (CD1)
--------------------------------------------------------------------------------

DR Peak RMS Duration Track
--------------------------------------------------------------------------------
DR11 -0.09 dB -14.89 dB 3:33 01-Feelings
DR12 -0.15 dB -15.99 dB 3:09 02-The Windmilis On Your Mind
DR11 -1.50 dB -16.12 dB 3:36 03-Alone Again
DR10 0.00 dB -12.74 dB 2:54 04-Run To Me
DR10 -0.03 dB -12.67 dB 3:32 05-La Mer
DR9 0.00 dB -11.32 dB 3:20 06-Emmanuelle
DR15 -0.09 dB -18.61 dB 3:39 07-Da Ya Think I'm Sexy
DR11 -2.64 dB -16.15 dB 2:55 08-Sleepy Shores
DR12 -0.75 dB -16.02 dB 3:09 09-Tempi D'amore
DR12 -4.31 dB -18.85 dB 1:51 10-Hello Dolly
DR11 -0.31 dB -14.33 dB 2:13 11-Ol Man River
DR11 -1.78 dB -15.84 dB 2:33 12-Love Theme From 'The Goodfather'
DR12 -1.29 dB -16.12 dB 3:02 13-Un Homme Et Une Femme
DR10 -1.54 dB -15.26 dB 2:40 14-Unchained Melody
DR14 -1.85 dB -18.31 dB 3:30 15-Indian Love Call
DR13 -2.54 dB -17.94 dB 3:00 16-Theme Di Nadia
DR11 0.00 dB -13.58 dB 2:32 17-Smoke Gets In Your Eyes
DR10 -0.54 dB -14.77 dB 2:25 18-Summertime
DR13 -2.52 dB -18.43 dB 2:02 19-Belive Me
DR12 -1.66 dB -16.05 dB 3:13 20-Besame Mucho
DR11 0.00 dB -14.15 dB 3:04 21-The Way We Were
DR11 -1.38 dB -16.19 dB 3:30 22-Yesteday
DR9 -0.74 dB -12.70 dB 3:07 23-Are You Lonesome Tonight
DR12 -0.18 dB -13.64 dB 3:43 24-Aquarius
DR11 0.00 dB -14.30 dB 3:29 25-The Man I Love
--------------------------------------------------------------------------------

Number of tracks: 25
Official DR value: DR11

Samplerate: 44100 Hz
Channels: 2
Bits per sample: 16
Bitrate: 807 kbps
Codec: FLAC
================================================================================

//////////////////////////////////////////////////////////////////////////////

foobar2000 1.2.8 / Dynamic Range Meter 1.1.1
log date: 2013-10-22 02:27:47

--------------------------------------------------------------------------------
Analyzed: Fausto Papetti / The Best (CD2)
--------------------------------------------------------------------------------

DR Peak RMS Duration Track
--------------------------------------------------------------------------------
DR11 -1.25 dB -15.04 dB 2:55 01-Love Story
DR14 0.00 dB -15.12 dB 3:15 02-Theme From Paradise
DR11 -2.88 dB -16.67 dB 4:07 03-Samba Pa Ti
DR11 -0.79 dB -14.52 dB 2:35 04-Giochi Proibiti
DR11 -0.36 dB -15.92 dB 3:49 05-Je T'aime Moi Non Plus
DR12 -0.62 dB -16.06 dB 3:29 06-Sorry Seems To Be The Hardest Word
DR10 -2.56 dB -15.00 dB 2:37 07-Strangers In The Night
DR12 -0.06 dB -15.11 dB 3:11 08-I Just Called To Say I Love You
DR10 0.00 dB -11.62 dB 2:31 09-Song Sung Blue
DR10 -1.82 dB -16.46 dB 2:25 10-The Shadow Of Tou Smile
DR11 -2.20 dB -15.61 dB 2:16 11-More
DR13 -1.13 dB -17.75 dB 3:13 12-Africa
DR13 -0.80 dB -15.91 dB 4:15 13-Reality
DR11 0.00 dB -12.60 dB 2:19 14-El Bimbo
DR9 0.00 dB -11.22 dB 2:34 15-Georgia On My Mind
DR11 -1.03 dB -15.56 dB 2:17 16-Danny Boy
DR8 0.00 dB -10.26 dB 3:34 17-Petite Fleur
DR9 0.00 dB -10.93 dB 2:47 18-Misty
DR11 -1.25 dB -15.88 dB 2:46 19-Love Me Tender
DR14 -0.39 dB -16.24 dB 4:02 20-The House Of The Rising Sun
DR11 -0.64 dB -13.82 dB 2:40 21-Cabaret
DR15 0.00 dB -17.06 dB 3:57 22-Sunday Party
DR9 0.00 dB -11.82 dB 2:25 23-In A Sentimental Mood
DR8 0.00 dB -10.15 dB 2:56 24-A Whiter Shade Of Pale
DR11 -0.38 dB -14.65 dB 3:02 25-Giu La Testa
--------------------------------------------------------------------------------

Number of tracks: 25
Official DR value: DR11

Samplerate: 44100 Hz
Channels: 2
Bits per sample: 16
Bitrate: 802 kbps
Codec: FLAC
================================================================================
CD1
=====================================
01. Fausto Papetti - Feelings [3:33]
02. Fausto Papetti - The Windmilis On Your Mind [3:09]
03. Fausto Papetti - Alone Again [3:36]
04. Fausto Papetti - Run To Me [2:54]
05. Fausto Papetti - La Mer [3:32]
06. Fausto Papetti - Emmanuelle [3:20]
07. Fausto Papetti - Da Ya Think I'm Sexy [3:39]
08. Fausto Papetti - Sleepy Shores [2:55]
09. Fausto Papetti - Tempi D'amore [3:09]
10. Fausto Papetti - Hello Dolly [1:51]
11. Fausto Papetti - Ol Man River [2:13]
12. Fausto Papetti - Love Theme From 'The Goodfather' [2:33]
13. Fausto Papetti - Un Homme Et Une Femme [3:02]
14. Fausto Papetti - Unchained Melody [2:40]
15. Fausto Papetti - Indian Love Call [3:30]
16. Fausto Papetti - Theme Di Nadia [3:00]
17. Fausto Papetti - Smoke Gets In Your Eyes [2:32]
18. Fausto Papetti - Summertime [2:25]
19. Fausto Papetti - Belive Me [2:02]
20. Fausto Papetti - Besame Mucho [3:13]
21. Fausto Papetti - The Way We Were [3:04]
22. Fausto Papetti - Yesteday [3:30]
23. Fausto Papetti - Are You Lonesome Tonight [3:07]
24. Fausto Papetti - Aquarius [3:43]
25. Fausto Papetti - The Man I Love [3:29]
--------------------------
Total time [01:15:41]


CD2
================================
01. Fausto Papetti - Love Story [2:55]
02. Fausto Papetti - Theme From Paradise [3:15]
03. Fausto Papetti - Samba Pa Ti [4:07]
04. Fausto Papetti - Giochi Proibiti [2:35]
05. Fausto Papetti - Je T'aime Moi Non Plus [3:49]
06. Fausto Papetti - Sorry Seems To Be The Hardest Word [3:29]
07. Fausto Papetti - Strangers In The Night [2:37]
08. Fausto Papetti - I Just Called To Say I Love You [3:11]
09. Fausto Papetti - Song Sung Blue [2:31]
10. Fausto Papetti - The Shadow Of Tou Smile [2:25]
11. Fausto Papetti - More [2:16]
12. Fausto Papetti - Africa [3:13]
13. Fausto Papetti - Reality [4:15]
14. Fausto Papetti - El Bimbo [2:19]
15. Fausto Papetti - Georgia On My Mind [2:34]
16. Fausto Papetti - Danny Boy [2:17]
17. Fausto Papetti - Petite Fleur [3:34]
18. Fausto Papetti - Misty [2:47]
19. Fausto Papetti - Love Me Tender [2:46]
20. Fausto Papetti - The House Of The Rising Sun [4:02]
21. Fausto Papetti - Cabaret [2:40]
22. Fausto Papetti - Sunday Party [3:57]
23. Fausto Papetti - In A Sentimental Mood [2:25]
24. Fausto Papetti - A Whiter Shade Of Pale [2:56]
25. Fausto Papetti - Giu La Testa [3:02]
--------------------------
Total time [01:15:58]


Пиратка. Где произведено - неизвестно. Подборка композиций отличная.
 
Последнее редактирование модератором:

aheron

Гуру
VIP
Сообщения
15,712
Реакции
18,823
Fausto Papetti - Papetti Gold [3CD] (2007)



Performer: Fausto Papetti
Album: Papetti Gold
Including: 3CD-Set, Compilation
Label: S.I.A.E./Universal Music Italia. Made in the EU.
Catalog #: 984 8675
Style: Instrumental, Saxophone
Year: 2007
Format: FLAC (image +.cue)
Bitrate: lossless
Covers: in archive
Amount of tracks: 20+20+20
Size ZIP: ~ 1,35 gb

Exact Audio Copy V0.99 prebeta 5 from 4. May 2009

EAC extraction logfile from 28. October 2010, 16:46

Fausto Papetti / Papetti Gold, CD1

Used drive : Optiarc DVD RW AD-7203S Adapter: 3 ID: 1

Read mode : Secure
Utilize accurate stream : Yes
Defeat audio cache : Yes
Make use of C2 pointers : No

Read offset correction : 48
Overread into Lead-In and Lead-Out : No
Fill up missing offset samples with silence : Yes
Delete leading and trailing silent blocks : No
Null samples used in CRC calculations : Yes
Used interface : Native Win32 interface for Win NT & 2000

Used output format : User Defined Encoder
Selected bitrate : 1024 kBit/s
Quality : High
Add ID3 tag : No
Command line compressor : C:\Program Files\Exact Audio Copy\Flac\flac.exe
Additional command line options : -8 -V -T "COMMENT=flacmusic.ru, ripped by DaRReL™" %s


TOC of the extracted CD

Track | Start | Length | Start sector | End sector
---------------------------------------------------------
1 | 0:00.00 | 3:34.60 | 0 | 16109
2 | 3:34.60 | 2:34.37 | 16110 | 27696
3 | 6:09.22 | 3:35.35 | 27697 | 43856
4 | 9:44.57 | 2:37.22 | 43857 | 55653
5 | 12:22.04 | 2:53.00 | 55654 | 68628
6 | 15:15.04 | 2:58.72 | 68629 | 82050
7 | 18:14.01 | 3:30.11 | 82051 | 97811
8 | 21:44.12 | 4:25.62 | 97812 | 117748
9 | 26:09.74 | 2:43.12 | 117749 | 129985
10 | 28:53.11 | 6:36.45 | 129986 | 159730
11 | 35:29.56 | 3:28.47 | 159731 | 175377
12 | 38:58.28 | 3:23.29 | 175378 | 190631
13 | 42:21.57 | 3:24.54 | 190632 | 205985
14 | 45:46.36 | 4:18.65 | 205986 | 225400
15 | 50:05.26 | 3:19.46 | 225401 | 240371
16 | 53:24.72 | 3:38.39 | 240372 | 256760
17 | 57:03.36 | 3:03.06 | 256761 | 270491
18 | 60:06.42 | 3:23.72 | 270492 | 285788
19 | 63:30.39 | 4:03.50 | 285789 | 304063
20 | 67:34.14 | 3:25.12 | 304064 | 319450


Range status and errors

Selected range

Filename F:\$ Retro $\Fausto Papetti - Papetti Gold (EU 3CD-Set 2007 SIAE, 984 8675)\Fausto Papetti - Papetti Gold, CD1.wav

Peak level 96.6 %
Range quality 100.0 %
Test CRC 44215519
Copy CRC 44215519
Copy OK

No errors occurred


AccurateRip summary

Track 1 accurately ripped (confidence 1) [9906765D]
Track 2 accurately ripped (confidence 1) [F15BD067]
Track 3 accurately ripped (confidence 1) [1FAF6D0C]
Track 4 accurately ripped (confidence 1) [AC31933E]
Track 5 accurately ripped (confidence 1) [4AD5001F]
Track 6 accurately ripped (confidence 1) [23DCEFFB]
Track 7 accurately ripped (confidence 1) [1204D84B]
Track 8 accurately ripped (confidence 1) [9BCCD4C9]
Track 9 accurately ripped (confidence 1) [223CBBB0]
Track 10 accurately ripped (confidence 1) [D178E695]
Track 11 accurately ripped (confidence 1) [9FF53F19]
Track 12 accurately ripped (confidence 1) [FDCAB9A4]
Track 13 accurately ripped (confidence 1) [4794D990]
Track 14 accurately ripped (confidence 1) [29BAF113]
Track 15 accurately ripped (confidence 1) [5192852A]
Track 16 accurately ripped (confidence 1) [AA8D4DC7]
Track 17 accurately ripped (confidence 1) [DC214C17]
Track 18 accurately ripped (confidence 1) [B938431A]
Track 19 accurately ripped (confidence 1) [AEDD0971]
Track 20 accurately ripped (confidence 1) [6705301F]

All tracks accurately ripped

End of status report

////////////////////////////////////////////////////////////////////////////

Exact Audio Copy V0.99 prebeta 5 from 4. May 2009

EAC extraction logfile from 28. October 2010, 17:21

Fausto Papetti / Papetti Gold, CD2

Used drive : Optiarc DVD RW AD-7203S Adapter: 3 ID: 1

Read mode : Secure
Utilize accurate stream : Yes
Defeat audio cache : Yes
Make use of C2 pointers : No

Read offset correction : 48
Overread into Lead-In and Lead-Out : No
Fill up missing offset samples with silence : Yes
Delete leading and trailing silent blocks : No
Null samples used in CRC calculations : Yes
Used interface : Native Win32 interface for Win NT & 2000

Used output format : User Defined Encoder
Selected bitrate : 1024 kBit/s
Quality : High
Add ID3 tag : No
Command line compressor : C:\Program Files\Exact Audio Copy\Flac\flac.exe
Additional command line options : -8 -V -T "COMMENT=flacmusic.ru, ripped by DaRReL™" %s


TOC of the extracted CD

Track | Start | Length | Start sector | End sector
---------------------------------------------------------
1 | 0:00.00 | 2:47.45 | 0 | 12569
2 | 2:47.45 | 2:33.69 | 12570 | 24113
3 | 5:21.39 | 3:42.23 | 24114 | 40786
4 | 9:03.62 | 4:05.40 | 40787 | 59201
5 | 13:09.27 | 4:07.61 | 59202 | 77787
6 | 17:17.13 | 3:13.60 | 77788 | 92322
7 | 20:30.73 | 3:10.74 | 92323 | 106646
8 | 23:41.72 | 3:14.12 | 106647 | 121208
9 | 26:56.09 | 3:16.05 | 121209 | 135913
10 | 30:12.14 | 3:47.44 | 135914 | 152982
11 | 33:59.58 | 3:46.69 | 152983 | 170001
12 | 37:46.52 | 2:52.26 | 170002 | 182927
13 | 40:39.03 | 3:00.34 | 182928 | 196461
14 | 43:39.37 | 3:26.02 | 196462 | 211913
15 | 47:05.39 | 3:51.66 | 211914 | 229304
16 | 50:57.30 | 3:47.14 | 229305 | 246343
17 | 54:44.44 | 4:12.24 | 246344 | 265267
18 | 58:56.68 | 3:52.25 | 265268 | 282692
19 | 62:49.18 | 3:56.00 | 282693 | 300392
20 | 66:45.18 | 3:55.44 | 300393 | 318061


Range status and errors

Selected range

Filename F:\$ Retro $\Fausto Papetti - Papetti Gold (EU 3CD-Set 2007 SIAE, 984 8675)\Fausto Papetti - Papetti Gold, CD2.wav

Peak level 100.0 %
Range quality 100.0 %
Test CRC 287C73A2
Copy CRC 287C73A2
Copy OK

No errors occurred


AccurateRip summary

Track 1 accurately ripped (confidence 1) [8ABF45AA]
Track 2 accurately ripped (confidence 1) [99833849]
Track 3 accurately ripped (confidence 1) [2DF48E5A]
Track 4 accurately ripped (confidence 1) [45006D09]
Track 5 accurately ripped (confidence 1) [97A1794B]
Track 6 accurately ripped (confidence 1) [B3601684]
Track 7 accurately ripped (confidence 1) [5E1347B0]
Track 8 accurately ripped (confidence 1) [20278E88]
Track 9 accurately ripped (confidence 1) [FEABD326]
Track 10 accurately ripped (confidence 1) [AB911865]
Track 11 accurately ripped (confidence 1) [1A840A1B]
Track 12 accurately ripped (confidence 1) [7DF1060D]
Track 13 accurately ripped (confidence 1) [D5E09D7A]
Track 14 accurately ripped (confidence 1) [F65345EB]
Track 15 accurately ripped (confidence 1) [504618BD]
Track 16 accurately ripped (confidence 1) [FBC7E54E]
Track 17 accurately ripped (confidence 1) [65BCD074]
Track 18 accurately ripped (confidence 1) [E845BEEA]
Track 19 accurately ripped (confidence 1) [F44B5F4A]
Track 20 accurately ripped (confidence 1) [BDFB57AC]

All tracks accurately ripped

End of status report

/////////////////////////////////////////////////////////////////////////////////

Exact Audio Copy V0.99 prebeta 5 from 4. May 2009

EAC extraction logfile from 28. October 2010, 17:56

Fausto Papetti / Papetti Gold, CD3

Used drive : Optiarc DVD RW AD-7203S Adapter: 3 ID: 1

Read mode : Secure
Utilize accurate stream : Yes
Defeat audio cache : Yes
Make use of C2 pointers : No

Read offset correction : 48
Overread into Lead-In and Lead-Out : No
Fill up missing offset samples with silence : Yes
Delete leading and trailing silent blocks : No
Null samples used in CRC calculations : Yes
Used interface : Native Win32 interface for Win NT & 2000

Used output format : User Defined Encoder
Selected bitrate : 1024 kBit/s
Quality : High
Add ID3 tag : No
Command line compressor : C:\Program Files\Exact Audio Copy\Flac\flac.exe
Additional command line options : -8 -V -T "COMMENT=flacmusic.ru, ripped by DaRReL™" %s


TOC of the extracted CD

Track | Start | Length | Start sector | End sector
---------------------------------------------------------
1 | 0:00.00 | 3:02.47 | 0 | 13696
2 | 3:02.47 | 3:49.27 | 13697 | 30898
3 | 6:51.74 | 3:47.02 | 30899 | 47925
4 | 10:39.01 | 3:21.29 | 47926 | 63029
5 | 14:00.30 | 3:57.52 | 63030 | 80856
6 | 17:58.07 | 3:35.69 | 80857 | 97050
7 | 21:34.01 | 3:21.70 | 97051 | 112195
8 | 24:55.71 | 3:24.15 | 112196 | 127510
9 | 28:20.11 | 3:19.60 | 127511 | 142495
10 | 31:39.71 | 3:41.71 | 142496 | 159141
11 | 35:21.67 | 3:20.02 | 159142 | 174143
12 | 38:41.69 | 4:12.38 | 174144 | 193081
13 | 42:54.32 | 3:08.07 | 193082 | 207188
14 | 46:02.39 | 3:44.35 | 207189 | 224023
15 | 49:46.74 | 3:24.62 | 224024 | 239385
16 | 53:11.61 | 3:21.56 | 239386 | 254516
17 | 56:33.42 | 3:20.34 | 254517 | 269550
18 | 59:54.01 | 3:24.71 | 269551 | 284921
19 | 63:18.72 | 2:43.13 | 284922 | 297159
20 | 66:02.10 | 3:02.20 | 297160 | 310829


Range status and errors

Selected range

Filename F:\$ Retro $\Fausto Papetti - Papetti Gold (EU 3CD-Set 2007 SIAE, 984 8675)\Fausto Papetti - Papetti Gold, CD3.wav

Peak level 96.6 %
Range quality 100.0 %
Test CRC 3B1950E0
Copy CRC 3B1950E0
Copy OK

No errors occurred


AccurateRip summary

Track 1 accurately ripped (confidence 1) [319F24B4]
Track 2 accurately ripped (confidence 1) [4EF0BAE7]
Track 3 accurately ripped (confidence 1) [FDC86C1F]
Track 4 accurately ripped (confidence 1) [6417BD34]
Track 5 accurately ripped (confidence 1) [D30966EB]
Track 6 accurately ripped (confidence 1) [88E0EEC9]
Track 7 accurately ripped (confidence 1) [88EA2A40]
Track 8 accurately ripped (confidence 1) [4FC9CC09]
Track 9 accurately ripped (confidence 1) [55642EAC]
Track 10 accurately ripped (confidence 1) [3AACC475]
Track 11 accurately ripped (confidence 1) [CA062967]
Track 12 accurately ripped (confidence 1) [7D1A5EF5]
Track 13 accurately ripped (confidence 1) [E191F6D5]
Track 14 accurately ripped (confidence 1) [DDD236D8]
Track 15 accurately ripped (confidence 1) [243199A9]
Track 16 accurately ripped (confidence 1) [8EDE0EF1]
Track 17 accurately ripped (confidence 1) [426160D3]
Track 18 accurately ripped (confidence 1) [EDD93DA9]
Track 19 accurately ripped (confidence 1) [4CE8007F]
Track 20 accurately ripped (confidence 1) [0DEA3C79]

All tracks accurately ripped

End of status report
-----------------------

DON'T MODIFY THIS FILE

-----------------------

PERFORMER: auCDtect Task Manager, ver. 1.6.0 RC1 build 1.6.0.1
Copyright (c) 2008-2010 y-soft. All rights reserved


ANALYZER: auCDtect: CD records authenticity detector, version 0.8.2
Copyright (c) 2004 Oleg Berngardt. All rights reserved.
Copyright (c) 2004 Alexander Djourik. All rights reserved.


FILE: Fausto Papetti - Papetti Gold, CD1.flac
Size: 467257203 Hash: 8CA864AE6533AEBA4A222C18584CBDA7 Accuracy: -m0
Conclusion: CDDA 100%
Signature: 0A22C0AB02700DEDBB09CC59113E71605493A813

////////////////////////////////////////////////////////////////////////

-----------------------

DON'T MODIFY THIS FILE

-----------------------

PERFORMER: auCDtect Task Manager, ver. 1.6.0 RC1 build 1.6.0.1
Copyright (c) 2008-2010 y-soft. All rights reserved


ANALYZER: auCDtect: CD records authenticity detector, version 0.8.2
Copyright (c) 2004 Oleg Berngardt. All rights reserved.
Copyright (c) 2004 Alexander Djourik. All rights reserved.


FILE: Fausto Papetti - Papetti Gold, CD2.flac
Size: 482462256 Hash: F89C4929ED8C5CE9277FD0F1A052FE48 Accuracy: -m0
Conclusion: CDDA 100%
Signature: 5F305DD257FFC0DDFD1319D8590FB11CCAD31896

//////////////////////////////////////////////////////////////////////////

-----------------------

DON'T MODIFY THIS FILE

-----------------------

PERFORMER: auCDtect Task Manager, ver. 1.6.0 RC1 build 1.6.0.1
Copyright (c) 2008-2010 y-soft. All rights reserved


ANALYZER: auCDtect: CD records authenticity detector, version 0.8.2
Copyright (c) 2004 Oleg Berngardt. All rights reserved.
Copyright (c) 2004 Alexander Djourik. All rights reserved.


FILE: Fausto Papetti - Papetti Gold, CD3.flac
Size: 461060044 Hash: 565E473828EE6C6EAA74472D6D90776A Accuracy: -m0
Conclusion: CDDA 99%
Signature: B0719D61B9B7775051E0D1CBE23720CA11B5BB88
foobar2000 1.2.8 / Dynamic Range Meter 1.1.1
log date: 2013-10-22 01:20:44

--------------------------------------------------------------------------------
Analyzed: Fausto Papetti / Papetti Gold, CD1
--------------------------------------------------------------------------------

DR Peak RMS Duration Track
--------------------------------------------------------------------------------
DR5 -1.66 dB -7.78 dB 3:35 01-Yesterday
DR8 -1.30 dB -10.33 dB 2:34 02-Sapore Di Sale
DR8 -0.29 dB -9.33 dB 3:35 03-Strangers In The Night
DR10 -0.50 dB -12.53 dB 2:37 04-Il Cielo In Una Stanza
DR9 -0.30 dB -10.78 dB 2:53 05-I'm In The Mood For Love
DR7 -2.30 dB -10.75 dB 2:59 06-Brazil
DR6 -3.91 dB -10.74 dB 3:30 07-Moon River
DR6 -0.50 dB -8.87 dB 4:26 08-Un Uomo Una Donna
DR11 -0.30 dB -12.89 dB 2:43 09-Que Reste-T-Il De Nos Amours
DR7 -2.30 dB -10.29 dB 6:37 10-Samba Pa Ti
DR8 -1.50 dB -10.22 dB 3:29 11-Memory
DR7 -0.50 dB -9.03 dB 3:23 12-Je T'Aime... Moi Non Plus
DR6 -1.30 dB -9.17 dB 3:25 13-Mi Sono Innamorato Di Te
DR7 -1.50 dB -9.75 dB 4:19 14-Con Te Partiro
DR9 -1.50 dB -11.28 dB 3:20 15-Il Padrino (Tema D'Amore)
DR8 -1.50 dB -11.28 dB 3:39 16-Raindrops Keep Falling On My Head
DR6 -2.30 dB -10.39 dB 3:03 17-La Mer
DR9 -1.50 dB -12.01 dB 3:24 18-Corcovado
DR6 -2.30 dB -10.02 dB 4:04 19-What A Wonderful World
DR10 -0.50 dB -11.61 dB 3:25 20-Senza Fine
--------------------------------------------------------------------------------

Number of tracks: 20
Official DR value: DR8

Samplerate: 44100 Hz
Channels: 2
Bits per sample: 16
Bitrate: 878 kbps
Codec: FLAC
================================================================================

/////////////////////////////////////////////////////////////////////////////

foobar2000 1.2.8 / Dynamic Range Meter 1.1.1
log date: 2013-10-22 01:22:02

--------------------------------------------------------------------------------
Analyzed: Fausto Papetti / Papetti Gold, CD2
--------------------------------------------------------------------------------

DR Peak RMS Duration Track
--------------------------------------------------------------------------------
DR7 -0.50 dB -8.26 dB 2:48 01-Scandalo Al Sole (A Summer Place)
DR7 -0.30 dB -8.99 dB 2:34 02-L'Amore E Una Cosa Meravigliosa (Love Is A Many Splendored Thing)
DR8 -0.30 dB -9.08 dB 3:42 03-I'll Never Fall In Love Again
DR7 -0.50 dB -9.35 dB 4:06 04-My Funny Valentine
DR7 -0.30 dB -9.58 dB 4:08 05-Besame Mucho
DR7 -0.50 dB -9.14 dB 3:14 06-Io Vagabondo (Che Non Sono Altro)
DR9 -0.40 dB -11.01 dB 3:11 07-Windflowers
DR9 -0.50 dB -9.92 dB 3:14 08-Te Per Due (Tea For Two)
DR9 0.00 dB -11.51 dB 3:16 09-Blue Moon
DR8 -0.50 dB -9.29 dB 3:48 10-If You Leave Me Now
DR7 -0.30 dB -9.04 dB 3:47 11-La Casa Del Sole (The House Of The Rising Sun)
DR6 -0.50 dB -8.31 dB 2:52 12-A Wither Shade Of Pale
DR7 -0.30 dB -8.43 dB 3:00 13-Giu La Testa (Titoli)
DR8 -0.50 dB -9.71 dB 3:26 14-A Felicidade
DR8 -1.30 dB -10.22 dB 3:52 15-Grande, Grande, Grande
DR7 -0.84 dB -8.79 dB 3:47 16-Feelings
DR7 -0.30 dB -8.76 dB 4:12 17-Over The Rainbow
DR8 -0.50 dB -10.37 dB 3:52 18-I Just Called To Say I Love You
DR6 -1.30 dB -8.48 dB 3:56 19-Misty
DR8 -0.50 dB -10.17 dB 3:56 20-My Way
--------------------------------------------------------------------------------

Number of tracks: 20
Official DR value: DR8

Samplerate: 44100 Hz
Channels: 2
Bits per sample: 16
Bitrate: 910 kbps
Codec: FLAC
================================================================================

//////////////////////////////////////////////////////////////////////////////////////

foobar2000 1.2.8 / Dynamic Range Meter 1.1.1
log date: 2013-10-22 01:23:28

--------------------------------------------------------------------------------
Analyzed: Fausto Papetti / Papetti Gold, CD3
--------------------------------------------------------------------------------

DR Peak RMS Duration Track
--------------------------------------------------------------------------------
DR7 -0.50 dB -9.73 dB 3:03 01-C'era Una Volta Il West (Titoli)
DR8 -1.10 dB -10.69 dB 3:49 02-Imagine
DR10 -0.56 dB -11.79 dB 3:47 03-Europa (Earth's Cry Heaven's Smile)
DR6 -0.30 dB -7.66 dB 3:21 04-Soleado
DR8 -0.50 dB -10.10 dB 3:58 05-Love Story
DR8 -0.30 dB -9.96 dB 3:36 06-Arrivederci
DR8 -0.50 dB -10.06 dB 3:22 07-Il Dio Serpente
DR9 -0.50 dB -10.45 dB 3:24 08-La Colegiala
DR8 -0.50 dB -9.91 dB 3:20 09-Reality
DR7 -0.30 dB -8.32 dB 3:42 10-Se Stasera Sono Qui
DR10 -0.50 dB -11.64 dB 3:20 11-The Shadow Of Your Smile
DR7 -0.40 dB -9.12 dB 4:13 12-Tu Si 'Na Cosa Grande
DR9 -1.50 dB -11.22 dB 3:08 13-Anonimo Veneziano
DR6 -1.10 dB -8.34 dB 3:44 14-Cheek To Cheek
DR7 -1.30 dB -9.90 dB 3:25 15-Come Vorrei
DR8 -0.47 dB -9.34 dB 3:22 16-Estate
DR6 -1.30 dB -9.12 dB 3:20 17-La Vie En Rose
DR7 -0.50 dB -9.04 dB 3:25 18-E Penso A Te
DR7 -1.30 dB -9.99 dB 2:43 19-Io Che Non Vivo Senza Te
DR9 -0.50 dB -10.43 dB 3:02 20-Emmanuelle
--------------------------------------------------------------------------------

Number of tracks: 20
Official DR value: DR8

Samplerate: 44100 Hz
Channels: 2
Bits per sample: 16
Bitrate: 890 kbps
Codec: FLAC
================================================================================
Disc-1:
==============================
01. Fausto Papetti - Yesterday [3:35]
02. Fausto Papetti - Sapore Di Sale [2:34]
03. Fausto Papetti - Strangers In The Night [3:35]
04. Fausto Papetti - Il Cielo In Una Stanza [2:37]
05. Fausto Papetti - I'm In The Mood For Love [2:53]
06. Fausto Papetti - Brazil [2:59]
07. Fausto Papetti - Moon River [3:30]
08. Fausto Papetti - Un Uomo Una Donna [4:26]
09. Fausto Papetti - Que Reste-T-Il De Nos Amours [2:43]
10. Fausto Papetti - Samba Pa Ti [6:37]
11. Fausto Papetti - Memory [3:29]
12. Fausto Papetti - Je T'Aime... Moi Non Plus [3:23]
13. Fausto Papetti - Mi Sono Innamorato Di Te [3:25]
14. Fausto Papetti - Con Te Partiro [4:19]
15. Fausto Papetti - Il Padrino (Tema D'Amore) [3:20]
16. Fausto Papetti - Raindrops Keep Falling On My Head [3:39]
17. Fausto Papetti - La Mer [3:03]
18. Fausto Papetti - Corcovado [3:24]
19. Fausto Papetti - What A Wonderful World [4:04]
20. Fausto Papetti - Senza Fine [3:25]
------------------------------
Total time: [1:10:59]


Disc-2:
==============================
01. Fausto Papetti - Scandalo Al Sole (A Summer Place) [2:48]
02. Fausto Papetti - L'Amore E Una Cosa Meravigliosa (Love Is A Many Splendored Thing) [2:34]
03. Fausto Papetti - I'll Never Fall In Love Again [3:42]
04. Fausto Papetti - My Funny Valentine [4:06]
05. Fausto Papetti - Besame Mucho [4:08]
06. Fausto Papetti - Io Vagabondo (Che Non Sono Altro) [3:14]
07. Fausto Papetti - Windflowers [3:11]
08. Fausto Papetti - Te Per Due (Tea For Two) [3:14]
09. Fausto Papetti - Blue Moon [3:16]
10. Fausto Papetti - If You Leave Me Now [3:48]
11. Fausto Papetti - La Casa Del Sole (The House Of The Rising Sun) [3:47]
12. Fausto Papetti - A Wither Shade Of Pale [2:52]
13. Fausto Papetti - Giu La Testa (Titoli) [3:00]
14. Fausto Papetti - A Felicidade [3:26]
15. Fausto Papetti - Grande, Grande, Grande [3:52]
16. Fausto Papetti - Feelings [3:47]
17. Fausto Papetti - Over The Rainbow [4:12]
18. Fausto Papetti - I Just Called To Say I Love You [3:52]
19. Fausto Papetti - Misty [3:56]
20. Fausto Papetti - My Way [3:56]
------------------------------
Total time: [1:10:40]


Disc-3:
==============================
01. Fausto Papetti - C'era Una Volta Il West (Titoli) [3:03]
02. Fausto Papetti - Imagine [3:49]
03. Fausto Papetti - Europa (Earth's Cry Heaven's Smile) [3:47]
04. Fausto Papetti - Soleado [3:21]
05. Fausto Papetti - Love Story [3:58]
06. Fausto Papetti - Arrivederci [3:36]
07. Fausto Papetti - Il Dio Serpente [3:22]
08. Fausto Papetti - La Colegiala [3:24]
09. Fausto Papetti - Reality [3:20]
10. Fausto Papetti - Se Stasera Sono Qui [3:42]
11. Fausto Papetti - The Shadow Of Your Smile [3:20]
12. Fausto Papetti - Tu Si 'Na Cosa Grande [4:13]
13. Fausto Papetti - Anonimo Veneziano [3:08]
14. Fausto Papetti - Cheek To Cheek [3:44]
15. Fausto Papetti - Come Vorrei [3:25]
16. Fausto Papetti - Estate [3:22]
17. Fausto Papetti - La Vie En Rose [3:20]
18. Fausto Papetti - E Penso A Te [3:25]
19. Fausto Papetti - Io Che Non Vivo Senza Te [2:43]
20. Fausto Papetti - Emmanuelle [3:02]
------------------------------
Total time: [1:09:04]


All CD Time: [3:30:44]
 
Последнее редактирование модератором:

aheron

Гуру
VIP
Сообщения
15,712
Реакции
18,823
Fausto Papetti - Run To Me (1996)



Performer: Fausto Papetti
Album: Run To Me
Label: DURIUM/BUSY Music. Made in Belgium.
Catalog #: SLCD 814, SMT 170403
Style: Instrumental, Saxophone
Year: 1996
Format: FLAC (image + .cue)
Bitrate: lossless
Covers: in archive
Amount of tracks: 20
Size ZIP: ~ 326 mb

Exact Audio Copy V0.99 prebeta 4 from 23. January 2008

Отчёт EAC об извлечении, выполненном 3. января 2009, 22:33

Fausto Papetti / Run To Me

Дисковод: TEAC DV-W520GM Adapter: 4 ID: 2

Режим чтения : Достоверность
Использование точного потока : Да
Отключение кэша аудио : Да
Использование указателей C2 : Нет

Коррекция смещения при чтении : 6
Способность читать области Lead-in и Lead-out : Нет
Заполнение пропущенных сэмплов тишиной : Да
Удаление блоков с тишиной в начале и конце : Нет
При вычислениях CRC использовались нулевые сэмплы : Да
Интерфейс : Установленный внешний ASPI-интерфейс

Выходной формат : Внутренние WAV-операции
Формат сэмплов : 44.100 Гц; 16 бит; стерео


TOC извлечённого CD

Трек | Старт | Длительность | Начальный сектор | Конечный сектор
---------------------------------------------------------------------
1 | 0:00.00 | 2:56.25 | 0 | 13224
2 | 2:56.25 | 2:41.27 | 13225 | 25326
3 | 5:37.52 | 2:44.28 | 25327 | 37654
4 | 8:22.05 | 2:36.07 | 37655 | 49361
5 | 10:58.12 | 2:59.18 | 49362 | 62804
6 | 13:57.30 | 4:05.32 | 62805 | 81211
7 | 18:02.62 | 3:36.38 | 81212 | 97449
8 | 21:39.25 | 3:03.12 | 97450 | 111186
9 | 24:42.37 | 2:40.43 | 111187 | 123229
10 | 27:23.05 | 2:33.27 | 123230 | 134731
11 | 29:56.32 | 3:39.05 | 134732 | 151161
12 | 33:35.37 | 3:30.43 | 151162 | 166954
13 | 37:06.05 | 2:39.45 | 166955 | 178924
14 | 39:45.50 | 2:23.67 | 178925 | 189716
15 | 42:09.42 | 2:11.08 | 189717 | 199549
16 | 44:20.50 | 2:32.55 | 199550 | 211004
17 | 46:53.30 | 3:13.57 | 211005 | 225536
18 | 50:07.12 | 2:25.63 | 225537 | 236474
19 | 52:33.00 | 4:12.37 | 236475 | 255411
20 | 56:45.37 | 2:48.38 | 255412 | 268049


Характеристики диапазона извлечения и сообщения об ошибках

Выбранный диапазон

Имя файла F:\RELEASE\My RELEASES\Fausto Papetti - Run To Me [1996]\Fausto Papetti - Run To Me.wav

Пиковый уровень 100.0 %
Качество диапазона 99.9 %
CRC теста 1ED7150D
CRC копии 1ED7150D
Копирование... OK

Ошибок не произошло


AccurateRip: сводка

Трек 1 точность не определена (достоверность 1) [145FA97F], AccurateRip вернул [82517FC7]
Трек 2 точность не определена (достоверность 1) [C9E16C72], AccurateRip вернул [72B8C514]
Трек 3 точность не определена (достоверность 1) [2B953C37], AccurateRip вернул [E51775D4]
Трек 4 точность не определена (достоверность 1) [09A23B92], AccurateRip вернул [7F0E939A]
Трек 5 точность не определена (достоверность 1) [3CF4E0C5], AccurateRip вернул [CAF6C4D0]
Трек 6 точность не определена (достоверность 1) [2EBE0ED3], AccurateRip вернул [A5D74624]
Трек 7 точность не определена (достоверность 1) [F07AF3B8], AccurateRip вернул [564DD918]
Трек 8 точность не определена (достоверность 1) [E970A134], AccurateRip вернул [A3660B56]
Трек 9 точность не определена (достоверность 1) [D59D2F4C], AccurateRip вернул [41A1137E]
Трек 10 точность не определена (достоверность 1) [20230A69], AccurateRip вернул [65E505DD]
Трек 11 точность не определена (достоверность 1) [85588E5D], AccurateRip вернул [94D76D30]
Трек 12 точность не определена (достоверность 1) [307C9687], AccurateRip вернул [F7773D08]
Трек 13 точность не определена (достоверность 1) [D069ADCC], AccurateRip вернул [7E157AFE]
Трек 14 точность не определена (достоверность 1) [F113120A], AccurateRip вернул [8833C960]
Трек 15 точность не определена (достоверность 1) [EC317152], AccurateRip вернул [EC8791AD]
Трек 16 точность не определена (достоверность 1) [BF1999CC], AccurateRip вернул [A3056DFA]
Трек 17 точность не определена (достоверность 1) [9310BF21], AccurateRip вернул [5AE932EE]
Трек 18 точность не определена (достоверность 1) [6DE937C2], AccurateRip вернул [AB76E510]
Трек 19 точность не определена (достоверность 1) [7F98D64C], AccurateRip вернул [951FA362]
Трек 20 точность не определена (достоверность 1) [86FEB4D5], AccurateRip вернул [951F5500]

Ни один трек не прошёл проверки на точность
В вашей базе может быть иной вариант штамповки диска

Конец отчёта
-----------------------

DON'T MODIFY THIS FILE

-----------------------

PERFORMER: auCDtect Task Manager, ver. 1.6.0 RC1 build 1.6.0.1
Copyright (c) 2008-2010 y-soft. All rights reserved


ANALYZER: auCDtect: CD records authenticity detector, version 0.8.2
Copyright (c) 2004 Oleg Berngardt. All rights reserved.
Copyright (c) 2004 Alexander Djourik. All rights reserved.


FILE: Fausto Papetti - Run To Me.flac
Size: 336532283 Hash: 37BE364850AFC255C34ACA8A4749D997 Accuracy: -m0
Conclusion: CDDA 100%
Signature: 37AA73FD4D2CA976EE65DBCECA8C32C5A84CC411
foobar2000 1.3.3 / Dynamic Range Meter 1.1.1
log date: 2014-09-27 12:41:52

--------------------------------------------------------------------------------
Analyzed: Fausto Papetti / Run To Me
--------------------------------------------------------------------------------

DR Peak RMS Duration Track
--------------------------------------------------------------------------------
DR11 -0.26 dB -14.62 dB 2:56 01-Run To Me
DR11 0.00 dB -13.33 dB 2:41 02-Born Free
DR10 0.00 dB -13.10 dB 2:44 03-Unchained Melody
DR12 -0.17 dB -16.30 dB 2:36 04-Wonderland By Night
DR11 -1.42 dB -15.03 dB 2:59 05-Sleeply Shores
DR15 -0.25 dB -17.19 dB 4:05 06-The House Of The Rusing Sun
DR14 -0.25 dB -16.69 dB 3:37 07-Indian Love Call
DR11 0.00 dB -14.82 dB 3:03 08-A Whiter Shade Of Pale
DR10 -1.24 dB -14.92 dB 2:41 09-Strangers In The Night
DR12 0.00 dB -16.09 dB 2:33 10-Smoke Gets In Your Eyes
DR12 -1.00 dB -17.67 dB 3:39 11-Feelings
DR12 -0.37 dB -16.47 dB 3:31 12-Blue Eyes
DR11 -0.71 dB -15.85 dB 2:40 13-Georgia On My Mind
DR10 0.00 dB -14.48 dB 2:24 14-Danny Boy
DR12 -0.26 dB -15.82 dB 2:11 15-Laura
DR10 -0.07 dB -14.79 dB 2:33 16-The Shadows Of Your Smile
DR13 0.00 dB -15.72 dB 3:14 17-Windmills Of Your Mind
DR12 0.00 dB -15.52 dB 2:26 18-Brazil
DR13 -0.88 dB -17.89 dB 4:12 19-My Way
DR12 -0.74 dB -15.73 dB 2:49 20-Misty
--------------------------------------------------------------------------------

Number of tracks: 20
Official DR value: DR12

Samplerate: 44100 Hz
Channels: 2
Bits per sample: 16
Bitrate: 753 kbps
Codec: FLAC
================================================================================
01. Fausto Papetti - Run To Me [2:56]
02. Fausto Papetti - Born Free [2:41]
03. Fausto Papetti - Unchained Melody [2:44]
04. Fausto Papetti - Wonderland By Night [2:36]
05. Fausto Papetti - Sleeply Shores [2:59]
06. Fausto Papetti - The House Of The Rusing Sun [4:05]
07. Fausto Papetti - Indian Love Call [3:37]
08. Fausto Papetti - A Whiter Shade Of Pale [3:03]
09. Fausto Papetti - Strangers In The Night [2:41]
10. Fausto Papetti - Smoke Gets In Your Eyes [2:33]
11. Fausto Papetti - Feelings [3:39]
12. Fausto Papetti - Blue Eyes [3:31]
13. Fausto Papetti - Georgia On My Mind [2:40]
14. Fausto Papetti - Danny Boy [2:24]
15. Fausto Papetti - Laura [2:11]
16. Fausto Papetti - The Shadows Of Your Smile [2:33]
17. Fausto Papetti - Windmills Of Your Mind [3:14]
18. Fausto Papetti - Brazil [2:26]
19. Fausto Papetti - My Way [4:12]
20. Fausto Papetti - Misty [2:49]
--------------------------
Total time: [59:34]
 
Последнее редактирование модератором:

Similar threads

Ответы
0
Просмотры
773
Ответы
19
Просмотры
5K
Сверху