aheron

Гуру
VIP
Сообщения
15,712
Реакции
18,823




Джордж Майкл (англ. George Michael, урожденный - Georgios Kyriacos Panayiotou; род. 25 июня 1963 г., Великобритания, г. Лондон) — британский певец греко-английского происхождения, автор песен, мультиинструменталист. За сольную карьеру и за время участия в дуэте Wham! мировой тираж записей составляет более 100 миллионов копий. Обладатель двух премий «Грэмми». Согласно данным Британской радио академии песни Джорджа Майкла признаны самыми проигрываемыми на британских станциях в период с 1984 по 2004 годы.
Джордж Майкл родился 25 июня 1963 года в Лондоне в семье грека-киприота, иммигрировавшего в 1950-е годы, и англичанки. Его музыкальная карьера началась в 1981 году, когда он вместе со своим школьным другом Эндрю Риджли создал группу The Executives. Группа не смогла добиться успеха, и тогда Майкл и Риджли решили выступать дуэтом под названием Wham!. Они приняли сценический образ богатых повес, исповедующих гедонистический образ жизни, что было «на полную катушку» продемонстрировано в видеоклипах к дебютным синглам Wham Rap! (Enjoy What You Do) и Young Guns (Go For It). Несмотря на огромный коммерческий успех песен Wake Me Up Before You Go-Go и Last Christmas, в 1986 году дуэт распался. Синглы Wham! Careless Whisper (1984) и A Different Corner (1986) фактически были исполнены Джорджем Майклом. После распада Wham! певец заявил, что намерен начать сольную карьеру и писать более серьёзную, взрослую музыку. Выпущенная ещё под маркой Wham! жизнеутверждающая песня Freedom привлекла всеобщее внимание к Майклу как к одной из самых талантливых и модных фигур своего поколения. Поклонники с нетерпением ожидали выхода первого сольного альбома своего кумира. Этот альбом, озаглавленный Faith, поступил в музыкальные магазины 30 октября 1987 года. На волне истерии, вызванной выходом пластинки в стиле фанк, было продано более 16 миллионов экземпляров, причём по итогам года журнал «Биллборд» назвал её самым продаваемым диском в США.
 
Последнее редактирование:

aheron

Гуру
VIP
Сообщения
15,712
Реакции
18,823
George Michael - Faith (1987)





Performer: George Michael
Album: Faith
Label: Sony Music Entertainment (UK) Ltd/Epic. Made in UK.
Catalog #: EPC 460000 2
Style: Pop Rock, Downtempo, Synth-pop
Year: 1987
Format: FLAC (image + .cue)
Bitrate: lossless
Covers: in archive
Amount of tracks: 11
Size Zip: 374 mb

George Michael - Faith (1987)
11 / 00:00:58:02 / 344,65 MB

George Michael - Faith (11 / 58:02)
---------------------------------------------------
01. George Michael - Faith [03:16]
02. George Michael - Father Figure [05:36]
03. George Michael - I Want Your Sex (Parts I & II) [09:17]
04. George Michael - One More Try [05:50]
05. George Michael - Hard Day [04:48]
06. George Michael - Hand To Mouth [04:36]
07. George Michael - Look At Your Hands [04:37]
08. George Michael - Monkey [05:06]
09. George Michael - Kissing A Fool [04:35]
10. George Michael - Hard Day (Shep Pettibone Remix) [06:29]
11. George Michael - A Last Request (I Want Your Sex Part III) [03:48]
Exact Audio Copy V0.99 prebeta 4 from 23. January 2008

Отчёт EAC об извлечении, выполненном 17. декабря 2008, 9:09

George Michael / Faith

Дисковод: ASUS DRW-1608P Adapter: 0 ID: 0

Режим чтения : Достоверность
Использование точного потока : Да
Отключение кэша аудио : Да
Использование указателей C2 : Нет

Коррекция смещения при чтении : 48
Способность читать области Lead-in и Lead-out : Нет
Заполнение пропущенных сэмплов тишиной : Да
Удаление блоков с тишиной в начале и конце : Нет
При вычислениях CRC использовались нулевые сэмплы : Да
Интерфейс : Встроенный Win32-интерфейс для Win NT/2000

Выходной формат : Внутренние WAV-операции
Формат сэмплов : 44.100 Гц; 16 бит; стерео


TOC извлечённого CD

Трек | Старт | Длительность | Начальный сектор | Конечный сектор
---------------------------------------------------------------------
1 | 0:00.00 | 3:16.30 | 0 | 14729
2 | 3:16.30 | 5:36.35 | 14730 | 39964
3 | 8:52.65 | 9:17.30 | 39965 | 81769
4 | 18:10.20 | 5:50.55 | 81770 | 108074
5 | 24:01.00 | 4:48.00 | 108075 | 129674
6 | 28:49.00 | 4:36.12 | 129675 | 150386
7 | 33:25.12 | 4:37.60 | 150387 | 171221
8 | 38:02.72 | 5:06.05 | 171222 | 194176
9 | 43:09.02 | 4:35.53 | 194177 | 214854
10 | 47:44.55 | 6:29.72 | 214855 | 244101
11 | 54:14.52 | 3:48.03 | 244102 | 261204


Характеристики диапазона извлечения и сообщения об ошибках

Выбранный диапазон

Имя файла E:\George Michael + Wham!\[1987] Faith\George Michael - Faith.wav

Пиковый уровень 100.0 %
Качество диапазона 100.0 %
CRC теста C767652C
CRC копии C767652C
Копирование... OK

Ошибок не произошло


AccurateRip: сводка

Трек 1 точное извлечение (доверие 57) [526C30CA]
Трек 2 точное извлечение (доверие 56) [7F99F3AD]
Трек 3 точное извлечение (доверие 54) [A3688F50]
Трек 4 точное извлечение (доверие 56) [A20D928F]
Трек 5 точное извлечение (доверие 54) [D99ACC0A]
Трек 6 точное извлечение (доверие 56) [EAB295BA]
Трек 7 точное извлечение (доверие 55) [A2540A28]
Трек 8 точное извлечение (доверие 55) [E9542EE7]
Трек 9 точное извлечение (доверие 54) [0837E77C]
Трек 10 точное извлечение (доверие 54) [8373487E]
Трек 11 точное извлечение (доверие 56) [04B6BABC]

Все треки извлечены точно

Конец отчёта
AUDIOCHECKER v2.0 beta (build 457) - by Dester - [email protected]
~~~~~~~~~~~~~~~~~~~~~~~~~~~~~~~~~~
-=== НЕ РЕДАКТИРУЙТЕ ЭТОТ ФАЙЛ! ===-

Путь: ...\George Michael - Faith (1987)

01 -=- George Michael - Faith.flac -=- MPEG (95%)

160739316

 
Последнее редактирование:

aheron

Гуру
VIP
Сообщения
15,712
Реакции
18,823
George Michael - Listen Without Prejudice (Vol.1) (1990)





Performer: George Michael
Album: Listen Without Prejudice Vol.1
Label: Sony Music Entertainment (UK) Ltd/Epic. Made in UK.
Catalog #: EPC 467295 2
Style: Downtempo, Synth-pop, Vocal
Year: 1990
Bitrate: lossless
Format: FLAC (image + .cue)
Covers: in archive
Amount of tracks: 10
Size Zip: 356 mb

George Michael - Listen Without Prejudice (Vol.1) (1990)
10 / 00:00:48:18 / 304,69 MB

George Michael - Listen Without Prejudice [Vol 1] (10 / 48:18)
------------------------------------------------------------------
01. George Michael - Praying For Time [04:41]
02. George Michael - Freedom 90 [06:30]
03. George Michael - They Won't Go When I Go [05:06]
04. George Michael - Something To Save [03:18]
05. George Michael - Cowboys And Angels [07:14]
06. George Michael - Waiting For That Day [04:49]
07. George Michael - Mothers Pride [03:59]
08. George Michael - Heal The Pain [04:39]
09. George Michael - Soul Free [05:31]
10. George Michael - Waiting (Reprise) [02:27]
Exact Audio Copy V0.99 prebeta 4 from 23. January 2008

Отчёт EAC об извлечении, выполненном 17. декабря 2008, 9:25

George Michael / Listen Without Prejudice [Vol 1]

Дисковод: ASUS DRW-1608P Adapter: 0 ID: 0

Режим чтения : Достоверность
Использование точного потока : Да
Отключение кэша аудио : Да
Использование указателей C2 : Нет

Коррекция смещения при чтении : 48
Способность читать области Lead-in и Lead-out : Нет
Заполнение пропущенных сэмплов тишиной : Да
Удаление блоков с тишиной в начале и конце : Нет
При вычислениях CRC использовались нулевые сэмплы : Да
Интерфейс : Встроенный Win32-интерфейс для Win NT/2000

Выходной формат : Внутренние WAV-операции
Формат сэмплов : 44.100 Гц; 16 бит; стерео


TOC извлечённого CD

Трек | Старт | Длительность | Начальный сектор | Конечный сектор
---------------------------------------------------------------------
1 | 0:00.00 | 4:41.05 | 0 | 21079
2 | 4:41.05 | 6:30.65 | 21080 | 50394
3 | 11:11.70 | 5:06.20 | 50395 | 73364
4 | 16:18.15 | 3:18.30 | 73365 | 88244
5 | 19:36.45 | 7:14.60 | 88245 | 120854
6 | 26:51.30 | 4:49.72 | 120855 | 142601
7 | 31:41.27 | 3:59.03 | 142602 | 160529
8 | 35:40.30 | 4:39.12 | 160530 | 181466
9 | 40:19.42 | 5:31.60 | 181467 | 206351
10 | 45:51.27 | 2:27.48 | 206352 | 217424


Характеристики диапазона извлечения и сообщения об ошибках

Выбранный диапазон

Имя файла E:\George Michael + Wham!\[1990] Listen Without Prejudice (Vol.1)\George Michael - Listen Without Prejudice [Vol 1].wav

Пиковый уровень 100.0 %
Качество диапазона 100.0 %
CRC теста ABD48113
CRC копии ABD48113
Копирование... OK

Ошибок не произошло


AccurateRip: сводка

Трек 1 точное извлечение (доверие 137) [ADF97B8F]
Трек 2 точное извлечение (доверие 137) [E1DAE0DF]
Трек 3 точное извлечение (доверие 133) [C66F0D6D]
Трек 4 точное извлечение (доверие 133) [603B874F]
Трек 5 точное извлечение (доверие 135) [4826E55A]
Трек 6 точное извлечение (доверие 133) [2197E914]
Трек 7 точное извлечение (доверие 133) [4A0D185E]
Трек 8 точное извлечение (доверие 135) [EAA982EE]
Трек 9 точное извлечение (доверие 130) [E2DE4831]
Трек 10 точное извлечение (доверие 134) [718004AC]

Все треки извлечены точно

Конец отчёта
AUDIOCHECKER v2.0 beta (build 457) - by Dester - [email protected]
~~~~~~~~~~~~~~~~~~~~~~~~~~~~~~~~~~
-=== НЕ РЕДАКТИРУЙТЕ ЭТОТ ФАЙЛ! ===-

Путь: ...\George Michael - Listen Without Prejudice (Vol.1) (1990)

01 -=- George Michael - Listen Without Prejudice [Vol 1].flac -=- CDDA (100%)

94041572


 
Последнее редактирование:

aheron

Гуру
VIP
Сообщения
15,712
Реакции
18,823
George Michael - Older (1996)





Performer: George Michael
Album: Older
Label: Robobuild Ltd. DreamWorks Records. Made in USA.
Catalog #: DRMD 50000
Style: Downtempo, Synth-pop, Vocal
Year: 1996
Bitrate: lossless
Format: FLAC (image + .cue)
Covers: in archive
Amount of tracks: 11
Size Zip: 491 mb

George Michael - Older (11 / 58:56)
------------------------------------------------------
01. George Michael - Jesus To A Child [06:51]
02. George Michael - Fastlove [05:24]
03. George Michael - Older [05:33]
04. George Michael - Spinning The Wheel [06:21]
05. George Michael - It Doesn't Really Matter [04:50]
06. George Michael - The Strangest Thing [06:01]
07. George Michael - To Be Forgiven [05:21]
08. George Michael - Move On [04:45]
09. George Michael - Star People [05:16]
10. George Michael - You Have Been Loved [05:30]
11. George Michael - Free [03:00]
Exact Audio Copy V0.99 prebeta 4 from 23. January 2008

Отчёт EAC об извлечении, выполненном 17. декабря 2008, 10:49

George Michael / Older

Дисковод: ASUS DRW-1608P Adapter: 0 ID: 0

Режим чтения : Достоверность
Использование точного потока : Да
Отключение кэша аудио : Да
Использование указателей C2 : Нет

Коррекция смещения при чтении : 48
Способность читать области Lead-in и Lead-out : Нет
Заполнение пропущенных сэмплов тишиной : Да
Удаление блоков с тишиной в начале и конце : Нет
При вычислениях CRC использовались нулевые сэмплы : Да
Интерфейс : Встроенный Win32-интерфейс для Win NT/2000

Выходной формат : Внутренние WAV-операции
Формат сэмплов : 44.100 Гц; 16 бит; стерео


TOC извлечённого CD

Трек | Старт | Длительность | Начальный сектор | Конечный сектор
---------------------------------------------------------------------
1 | 0:00.00 | 6:51.05 | 0 | 30829
2 | 6:51.05 | 5:24.50 | 30830 | 55179
3 | 12:15.55 | 5:33.07 | 55180 | 80161
4 | 17:48.62 | 6:21.48 | 80162 | 108784
5 | 24:10.35 | 4:50.10 | 108785 | 130544
6 | 29:00.45 | 6:01.47 | 130545 | 157666
7 | 35:02.17 | 5:21.30 | 157667 | 181771
8 | 40:23.47 | 4:45.23 | 181772 | 203169
9 | 45:08.70 | 5:16.45 | 203170 | 226914
10 | 50:25.40 | 5:30.60 | 226915 | 251724
11 | 55:56.25 | 3:00.32 | 251725 | 265256


Характеристики диапазона извлечения и сообщения об ошибках

Выбранный диапазон

Имя файла E:\George Michael + Wham!\[1996] Older\George Michael - Older.wav

Пиковый уровень 99.6 %
Качество диапазона 100.0 %
CRC теста B68FC5E6
CRC копии B68FC5E6
Копирование... OK

Ошибок не произошло


AccurateRip: сводка

Трек 1 точное извлечение (доверие 9) [924BA239]
Трек 2 точное извлечение (доверие 9) [10489849]
Трек 3 точное извлечение (доверие 9) [A5A21174]
Трек 4 точное извлечение (доверие 9) [C9805EC8]
Трек 5 точное извлечение (доверие 9) [2AFC07DC]
Трек 6 точное извлечение (доверие 9) [D22C2074]
Трек 7 точное извлечение (доверие 8) [8893A578]
Трек 8 точное извлечение (доверие 9) [463D33C2]
Трек 9 точное извлечение (доверие 9) [4512E54F]
Трек 10 точное извлечение (доверие 9) [C5F680AA]
Трек 11 точное извлечение (доверие 9) [E4A6A004]

Все треки извлечены точно

Конец отчёта
AUDIOCHECKER v2.0 beta (build 457) - by Dester - [email protected]
~~~~~~~~~~~~~~~~~~~~~~~~~~~~~~~~~~
-=== НЕ РЕДАКТИРУЙТЕ ЭТОТ ФАЙЛ! ===-

Путь: ...\George Michael - Older (1996)

01 -=- George Michael - Older.flac -=- CDDA (99%)

241618004


 
Последнее редактирование:

aheron

Гуру
VIP
Сообщения
15,712
Реакции
18,823
George Michael - Patience (2004)





Performer: George Michael
Album: Patience
Label: Sony Music Entertainment (UK) Ltd. Made in UK.
Catalog #: 515402 2
Style: Pop Rock, Downtempo, Synth-pop
Year: 2004
Format: FLAC (image + .cue)
Bitrate: lossless
Covers: in archive
Amount of tracks: 14
Size Zip: 567 mb

George Michael - Patience (14 / 70:21)
----------------------------------------------
01. George Michael - Patience [02:53]
02. George Michael - Amazing [04:25]
03. George Michael - John & Elvis Are Dead [04:23]
04. George Michael - Cars & Trains [05:51]
05. George Michael - Round Here [05:55]
06. George Michael - Shoot The Dog [05:07]
07. George Michael - My Mother Had A Brother [06:17]
08. George Michael - Flawless (Go To The City) [06:51]
09. George Michael - American Angel [04:07]
10. George Michael - Precious Box [07:39]
11. George Michael - Please Send Me Someone (Anselmo's Song) [05:26]
12. George Michael - Freeek! [04:28]
13. George Michael - Through [05:22]
14. George Michael - Patience (Part Two) [01:30]
Exact Audio Copy V0.99 prebeta 4 from 23. January 2008

Отчёт EAC об извлечении, выполненном 17. декабря 2008, 12:11

George Michael / Patience

Дисковод: ASUS DRW-1608P Adapter: 0 ID: 0

Режим чтения : Достоверность
Использование точного потока : Да
Отключение кэша аудио : Да
Использование указателей C2 : Нет

Коррекция смещения при чтении : 48
Способность читать области Lead-in и Lead-out : Нет
Заполнение пропущенных сэмплов тишиной : Да
Удаление блоков с тишиной в начале и конце : Нет
При вычислениях CRC использовались нулевые сэмплы : Да
Интерфейс : Встроенный Win32-интерфейс для Win NT/2000

Выходной формат : Внутренние WAV-операции
Формат сэмплов : 44.100 Гц; 16 бит; стерео


TOC извлечённого CD

Трек | Старт | Длительность | Начальный сектор | Конечный сектор
---------------------------------------------------------------------
1 | 0:00.00 | 2:53.60 | 0 | 13034
2 | 2:53.60 | 4:25.62 | 13035 | 32971
3 | 7:19.47 | 4:23.43 | 32972 | 52739
4 | 11:43.15 | 5:51.05 | 52740 | 79069
5 | 17:34.20 | 5:55.55 | 79070 | 105749
6 | 23:30.00 | 5:07.55 | 105750 | 128829
7 | 28:37.55 | 6:17.62 | 128830 | 157166
8 | 34:55.42 | 6:51.10 | 157167 | 188001
9 | 41:46.52 | 4:07.05 | 188002 | 206531
10 | 45:53.57 | 7:39.65 | 206532 | 241021
11 | 53:33.47 | 5:26.20 | 241022 | 265491
12 | 58:59.67 | 4:28.35 | 265492 | 285626
13 | 63:28.27 | 5:22.58 | 285627 | 309834
14 | 68:51.10 | 1:30.40 | 309835 | 316624


Характеристики диапазона извлечения и сообщения об ошибках

Выбранный диапазон

Имя файла E:\George Michael + Wham!\[2004] Patience\George Michael - Patience.wav

Пиковый уровень 99.8 %
Качество диапазона 100.0 %
CRC теста 4C9EB891
CRC копии 4C9EB891
Копирование... OK

Ошибок не произошло


AccurateRip: сводка

Трек 1 точное извлечение (доверие 128) [C56863AA]
Трек 2 точное извлечение (доверие 128) [4907D7D9]
Трек 3 точное извлечение (доверие 128) [F8DD0719]
Трек 4 точное извлечение (доверие 127) [4887E61C]
Трек 5 точное извлечение (доверие 127) [C5BAFE86]
Трек 6 точное извлечение (доверие 127) [4B66C2D8]
Трек 7 точное извлечение (доверие 129) [C061F6D0]
Трек 8 точное извлечение (доверие 128) [F2FFA737]
Трек 9 точное извлечение (доверие 128) [8509D70D]
Трек 10 точное извлечение (доверие 129) [A78DFB92]
Трек 11 точное извлечение (доверие 128) [358EF49A]
Трек 12 точное извлечение (доверие 128) [A025BA13]
Трек 13 точное извлечение (доверие 127) [5E3283F3]
Трек 14 точное извлечение (доверие 125) [26F04ED6]

Все треки извлечены точно

Конец отчёта
AUDIOCHECKER v2.0 beta (build 457) - by Dester - [email protected]
~~~~~~~~~~~~~~~~~~~~~~~~~~~~~~~~~~
-=== НЕ РЕДАКТИРУЙТЕ ЭТОТ ФАЙЛ! ===-

Путь: ...\George Michael - Patience (2004)

01 -=- George Michael - Patience.flac -=- CDDA (100%)

240282116


 
Последнее редактирование:

aheron

Гуру
VIP
Сообщения
15,712
Реакции
18,823
George Michael - Songs From The Last Century (1999)





Performer: George Michael
Album: Songs From The Last Century
Label: Big Geoff Overseas Ltd., Virgin Records. Made in EU.
Catalog #: 7243 8 48740 2 5
Style: Pop Rock, Downtempo, Synth-pop
Year: 1999
Format: FLAC (image + .cue)
Bitrate: lossless
Covers: in archive
Amount of tracks: 10
Size Zip: 316 mb

George Michael - Songs From The Last Century. (10 / 43:11)
--------------------------------------------------------------
01. George Michael - Brother Can You Spare A Dime [04:22]
02. George Michael - Roxanne [04:11]
03. George Michael - You've Changed [04:25]
04. George Michael - My Baby Just Cares For Me [01:45]
05. George Michael - The First Time Ever I Saw Your Face [05:19]
06. George Michael - Miss Sarajevo [05:11]
07. George Michael - I Remember You [04:12]
08. George Michael - Secret Love [02:39]
09. George Michael - Wild Is The Wind [04:02]
10. George Michael - Where Or When / It's Alright With Me [07:00]
Exact Audio Copy V0.99 prebeta 4 from 23. January 2008

Отчёт EAC об извлечении, выполненном 17. декабря 2008, 11:46

George Michael / Songs From The Last Century

Дисковод: ASUS DRW-1608P Adapter: 0 ID: 0

Режим чтения : Достоверность
Использование точного потока : Да
Отключение кэша аудио : Да
Использование указателей C2 : Нет

Коррекция смещения при чтении : 48
Способность читать области Lead-in и Lead-out : Нет
Заполнение пропущенных сэмплов тишиной : Да
Удаление блоков с тишиной в начале и конце : Нет
При вычислениях CRC использовались нулевые сэмплы : Да
Интерфейс : Встроенный Win32-интерфейс для Win NT/2000

Выходной формат : Внутренние WAV-операции
Формат сэмплов : 44.100 Гц; 16 бит; стерео


TOC извлечённого CD

Трек | Старт | Длительность | Начальный сектор | Конечный сектор
---------------------------------------------------------------------
1 | 0:00.00 | 4:22.65 | 0 | 19714
2 | 4:22.65 | 4:11.15 | 19715 | 38554
3 | 8:34.05 | 4:25.30 | 38555 | 58459
4 | 12:59.35 | 1:45.72 | 58460 | 66406
5 | 14:45.32 | 5:19.30 | 66407 | 90361
6 | 20:04.62 | 5:11.05 | 90362 | 113691
7 | 25:15.67 | 4:12.70 | 113692 | 132661
8 | 29:28.62 | 2:39.53 | 132662 | 144639
9 | 32:08.40 | 4:02.27 | 144640 | 162816
10 | 36:10.67 | 7:00.58 | 162817 | 194374


Характеристики диапазона извлечения и сообщения об ошибках

Выбранный диапазон

Имя файла E:\George Michael + Wham!\[1999] Songs From The Last Century\George Michael - Songs From The Last Century.wav

Пиковый уровень 99.8 %
Качество диапазона 100.0 %
CRC теста 18A93B55
CRC копии 18A93B55
Копирование... OK

Ошибок не произошло


AccurateRip: сводка

Трек 1 точное извлечение (доверие 66) [56D51ABC]
Трек 2 точное извлечение (доверие 67) [3C8E96C2]
Трек 3 точное извлечение (доверие 67) [CB81AE07]
Трек 4 точное извлечение (доверие 67) [FD827AB9]
Трек 5 точное извлечение (доверие 67) [D44D2523]
Трек 6 точное извлечение (доверие 68) [74B91CF5]
Трек 7 точное извлечение (доверие 66) [17ABD0AC]
Трек 8 точное извлечение (доверие 67) [A284045D]
Трек 9 точное извлечение (доверие 67) [EECD2969]
Трек 10 точное извлечение (доверие 60) [EE7B86E1]

Все треки извлечены точно

Конец отчёта
AUDIOCHECKER v2.0 beta (build 457) - by Dester - [email protected]
~~~~~~~~~~~~~~~~~~~~~~~~~~~~~~~~~~
-=== НЕ РЕДАКТИРУЙТЕ ЭТОТ ФАЙЛ! ===-

Путь: ...\George Michael - Songs From The Last Century (1999)

01 -=- George Michael - Songs From The Last Century.flac -=- CDDA (100%)

150621860


 
Последнее редактирование:

aheron

Гуру
VIP
Сообщения
15,712
Реакции
18,823
George Michael - Ladies & Gentlemen (1998) [2CD] [Japan]





Performer: George Michael
Album: Ladies & Gentlemen
Label: Sony Music Japan/Epic. Made in Japan.
Catalog #: ESCA 7381-2
Style: Pop Rock, Downtempo, Synth-pop
Year: 1998
Format: FLAC (image + .cue)
Bitrate: lossless
Covers: in archive
Amount of tracks: 14+15
Size Zip: 2,3 gb

CD1\George Michael - Ladies & Gentlemen (for the heart) (14 / 74:34)
-----------------------------------------------------------------------
01. George Michael - Jesus To A Child [06:51]
02. George Michael - Father Figure [05:41]
03. George Michael - Careless Whisper [05:00]
04. George Michael - Don't Let The Sun Go Down On Me [05:48]
05. George Michael - You Have Been Loved [05:29]
06. George Michael - Kissing A Fool [04:35]
07. George Michael - I Can't Make You Love Me [05:22]
08. George Michael - Heal The Pain [04:47]
09. George Michael - A Moment With You [05:42]
10. George Michael - Desafinado [03:20]
11. George Michael - Cowboys And Angels [07:14]
12. George Michael - Praying For Time [04:44]
13. George Michael - One More Try [05:53]
14. George Michael - A Different Corner [04:02]


CD2\George Michael - Ladies & Gentlemen (for the feet) (15 / 74:19)
-------------------------------------------------------------------------
01. George Michael - Outside [04:44]
02. George Michael - As [04:46]
03. George Michael - Fastlove [05:30]
04. George Michael - Too Funky [03:44]
05. George Michael - Freedom 90 [06:29]
06. George Michael - Star People 97 [05:38]
07. George Michael - Killer\Papa Was A Rollin' Stone [04:16]
08. George Michael - I Want Your Sex (Pt II) [04:37]
09. George Michael - Monkey [05:06]
10. George Michael - Spinning The Wheel [06:08]
11. George Michael - Waiting For That Day [04:50]
12. George Michael - I Knew You Were Waiting (For Me) [03:58]
13. George Michael - Hard Day [04:48]
14. George Michael - Faith [04:13]
15. George Michael - Somebody To Love [05:25]


Notes:
================
1st Press
Exact Audio Copy V0.99 prebeta 5 from 4. May 2009

EAC extraction logfile from 19. November 2010, 22:26

George Michael / Ladies & Gentlemen (for the heart)

Used drive : PIONEER DVD-RW DVR-112D Adapter: 2 ID: 0

Read mode : Secure
Utilize accurate stream : Yes
Defeat audio cache : Yes
Make use of C2 pointers : No

Read offset correction : 48
Overread into Lead-In and Lead-Out : No
Fill up missing offset samples with silence : Yes
Delete leading and trailing silent blocks : No
Null samples used in CRC calculations : Yes
Used interface : Installed external ASPI interface

Used output format : User Defined Encoder
Selected bitrate : 1024 kBit/s
Quality : High
Add ID3 tag : No
Command line compressor : C:\Program Files (x86)\Exact Audio Copy\Flac\flac.exe
Additional command line options : -5 -V -T "ARTIST=%a" -T "TITLE=%t" -T "ALBUM=%g" -T "DATE=%y" -T "TRACKNUMBER=%n" -T "GENRE=%m" -T "COMMENT=EAC FLAC -5" %s


TOC of the extracted CD

Track | Start | Length | Start sector | End sector
---------------------------------------------------------
1 | 0:00.00 | 6:51.25 | 0 | 30849
2 | 6:51.25 | 5:41.12 | 30850 | 56436
3 | 12:32.37 | 5:00.25 | 56437 | 78961
4 | 17:32.62 | 5:48.25 | 78962 | 105086
5 | 23:21.12 | 5:29.58 | 105087 | 129819
6 | 28:50.70 | 4:35.20 | 129820 | 150464
7 | 33:26.15 | 5:22.02 | 150465 | 174616
8 | 38:48.17 | 4:47.38 | 174617 | 196179
9 | 43:35.55 | 5:42.52 | 196180 | 221881
10 | 49:18.32 | 3:20.63 | 221882 | 236944
11 | 52:39.20 | 7:14.62 | 236945 | 269556
12 | 59:54.07 | 4:44.05 | 269557 | 290861
13 | 64:38.12 | 5:53.70 | 290862 | 317406
14 | 70:32.07 | 4:02.58 | 317407 | 335614


Range status and errors

Selected range

Filename F:\1998 - Ladies & Gentlemen\CD1\George Michael - Ladies & Gentlemen (for the heart).wav

Peak level 100.0 %
Range quality 100.0 %
Test CRC 2E27BB88
Copy CRC 2E27BB88
Copy OK

No errors occurred


AccurateRip summary

Track 1 accurately ripped (confidence 3) [4F0A7CCD]
Track 2 accurately ripped (confidence 3) [BD441C00]
Track 3 accurately ripped (confidence 3) [D01D0F41]
Track 4 accurately ripped (confidence 3) [7E773769]
Track 5 accurately ripped (confidence 3) [66D80FCD]
Track 6 accurately ripped (confidence 3) [81CCDAE6]
Track 7 accurately ripped (confidence 3) [86A8056A]
Track 8 accurately ripped (confidence 3) [11A62057]
Track 9 accurately ripped (confidence 3) [3F182DFA]
Track 10 accurately ripped (confidence 3) [739707BF]
Track 11 accurately ripped (confidence 3) [6C84DC08]
Track 12 accurately ripped (confidence 3) [C65EB9CF]
Track 13 accurately ripped (confidence 3) [9531FE1D]
Track 14 accurately ripped (confidence 3) [E51F0905]

All tracks accurately ripped

End of status report

//////////////////////////////////////////////////////////////////////////////////

Exact Audio Copy V0.99 prebeta 5 from 4. May 2009

EAC extraction logfile from 19. November 2010, 22:50

George Michael / Ladies & Gentlemen (for the feet)

Used drive : PIONEER DVD-RW DVR-112D Adapter: 2 ID: 0

Read mode : Secure
Utilize accurate stream : Yes
Defeat audio cache : Yes
Make use of C2 pointers : No

Read offset correction : 48
Overread into Lead-In and Lead-Out : No
Fill up missing offset samples with silence : Yes
Delete leading and trailing silent blocks : No
Null samples used in CRC calculations : Yes
Used interface : Installed external ASPI interface

Used output format : User Defined Encoder
Selected bitrate : 1024 kBit/s
Quality : High
Add ID3 tag : No
Command line compressor : C:\Program Files (x86)\Exact Audio Copy\Flac\flac.exe
Additional command line options : -5 -V -T "ARTIST=%a" -T "TITLE=%t" -T "ALBUM=%g" -T "DATE=%y" -T "TRACKNUMBER=%n" -T "GENRE=%m" -T "COMMENT=EAC FLAC -5" %s


TOC of the extracted CD

Track | Start | Length | Start sector | End sector
---------------------------------------------------------
1 | 0:00.00 | 4:44.62 | 0 | 21361
2 | 4:44.62 | 4:46.48 | 21362 | 42859
3 | 9:31.35 | 5:30.72 | 42860 | 67681
4 | 15:02.32 | 3:44.73 | 67682 | 84554
5 | 18:47.30 | 6:29.10 | 84555 | 113739
6 | 25:16.40 | 5:38.02 | 113740 | 139091
7 | 30:54.42 | 4:16.28 | 139092 | 158319
8 | 35:10.70 | 4:37.35 | 158320 | 179129
9 | 39:48.30 | 5:06.07 | 179130 | 202086
10 | 44:54.37 | 6:08.70 | 202087 | 229756
11 | 51:03.32 | 4:50.02 | 229757 | 251508
12 | 55:53.34 | 3:58.56 | 251509 | 269414
13 | 59:52.15 | 4:48.72 | 269415 | 291086
14 | 64:41.12 | 4:13.40 | 291087 | 310101
15 | 68:54.52 | 5:25.10 | 310102 | 334486


Range status and errors

Selected range

Filename F:\1998 - Ladies & Gentlemen\CD2\George Michael - Ladies & Gentlemen (for the feet).wav

Peak level 100.0 %
Range quality 100.0 %
Test CRC 2D354E3E
Copy CRC 2D354E3E
Copy OK

No errors occurred


AccurateRip summary

Track 1 accurately ripped (confidence 2) [4A894F02]
Track 2 accurately ripped (confidence 2) [16FA147A]
Track 3 accurately ripped (confidence 2) [E5AA3DCD]
Track 4 accurately ripped (confidence 2) [ED61F422]
Track 5 accurately ripped (confidence 2) [A101E2C1]
Track 6 accurately ripped (confidence 2) [D8D9BE32]
Track 7 accurately ripped (confidence 2) [06CAB0A1]
Track 8 accurately ripped (confidence 2) [DD5786A7]
Track 9 accurately ripped (confidence 2) [177EFC03]
Track 10 accurately ripped (confidence 2) [CB6F76F8]
Track 11 accurately ripped (confidence 2) [20043A59]
Track 12 accurately ripped (confidence 2) [D8A8341A]
Track 13 accurately ripped (confidence 2) [29D9CC0D]
Track 14 accurately ripped (confidence 2) [F2CFA0C7]
Track 15 accurately ripped (confidence 2) [77CCF465]

All tracks accurately ripped

End of status report
-----------------------

DON'T MODIFY THIS FILE

-----------------------

PERFORMER: auCDtect Task Manager, ver. 1.6.0A0 build 1.6.0.0

Copyright (c) 2008-2010 y-soft. All rights reserved



ANALYZER: auCDtect: CD records authenticity detector, version 0.8.2

Copyright (c) 2004 Oleg Berngardt. All rights reserved.

Copyright (c) 2004 Alexander Djourik. All rights reserved.

FILE: George Michael - Ladies & Gentlemen (for the heart).flac

Size: 505745968 Hash: AC8CD2751349DFB80DEFEBF95C3AFB65 Accuracy: -m0

Conclusion: CDDA 100%

Signature: C52E5C7E45CCBD03B798EC87D10FBBFA076C10FD

//////////////////////////////////////////////////////////////////////////

-----------------------

DON'T MODIFY THIS FILE

-----------------------

PERFORMER: auCDtect Task Manager, ver. 1.6.0A0 build 1.6.0.0

Copyright (c) 2008-2010 y-soft. All rights reserved



ANALYZER: auCDtect: CD records authenticity detector, version 0.8.2

Copyright (c) 2004 Oleg Berngardt. All rights reserved.

Copyright (c) 2004 Alexander Djourik. All rights reserved.

FILE: George Michael - Ladies & Gentlemen (for the feet).flac

Size: 536444281 Hash: 5A5A738DAB095EA5DC2F8AFB598E040E Accuracy: -m0

Conclusion: CDDA 100%

Signature: 24147C529242F4223543071CB98F5DD3E9D1A742
 
Последнее редактирование:

aheron

Гуру
VIP
Сообщения
15,712
Реакции
18,823
George Michael - Twenty Five [3CD-Set] (2006)





Performer: George Michael
Album: Twenty Five
Label: Sony Music Entertainment (UK) Ltd. Made in UK.
Catalog #: BEAM/GEMA LC 13989, 88697009012
Style: Pop Rock, Downtempo, Synth-pop
Year: 2006 (3CD Set The Best Of)
Format: FLAC (image + .cue)
Bitrate: lossless
Covers: in archive
Amount of tracks: 44
Size Zip: 1,6 gb

George Michael - Twenty Five (CD 1, For Living) (15 / 74:00)
----------------------------------------------------------------------
01. George Michael - Everything She Wants - WHAM! [06:33]
02. George Michael - Wake Me Up Before You Go-Go - WHAM! [03:52]
03. George Michael - Freedom - WHAM! [05:20]
04. George Michael - Faith [03:15]
05. George Michael - Too Funky [03:46]
06. George Michael - Fastlove [05:28]
07. George Michael - Freedom! '90 [06:30]
08. George Michael - Spinnng the Wheel [06:09]
09. George Michael - Outside [04:44]
10. George Michael - As (George Michael and Mary J. Blige) [04:43]
11. George Michael - Freeek! [04:32]
12. George Michael - Shoot the Dog [05:08]
13. George Michael - Amazing [04:25]
14. George Michael - Flawless (Go to the City) [04:50]
15. George Michael - An Easier Affair [04:38]

George Michael - Twenty Five (CD 2, For Loving) (14 / 73:31)
------------------------------------------------------------------------
01. George Michael - Careless Whisper [05:04]
02. George Michael - Last Christmas - WHAM! [04:27]
03. George Michael - A Different Corner [04:03]
04. George Michael - Father Figure [05:40]
05. George Michael - One More Try [05:53]
06. George Michael - Praying for Time [04:41]
07. George Michael - Heal the Pain (George Michael and Paul McCartney) [04:43]
08. George Michael - Don't Let the Sun Go Down on Me (George Michael and Elton John) [05:48]
09. George Michael - Jesus to a Child [06:50]
10. George Michael - Older [05:34]
11. George Michael - Round Here [05:55]
12. George Michael - You Have Been Loved [05:28]
13. George Michael - John and Elvis Are Dead [04:23]
14. George Michael - This Is Not Real Love (George Michael and Mutya) [04:56]

George Michael - Twenty Five (CD 3, For the Loyal) (15 / 71:11)
-------------------------------------------------------------------------------------
01. George Michael - Understand [05:55]
02. George Michael - Precious Box [07:38]
03. George Michael - Roxanne [04:10]
04. George Michael - Fantasy [05:02]
05. George Michael - Cars and Trains [05:51]
06. George Michael - Patience [02:53]
07. George Michael - You Know That I Want To [04:32]
08. George Michael - My Mother Had a Brother [06:19]
09. George Michael - If You Were There - Wham! [03:43]
10. George Michael - Safe [04:25]
11. George Michael - American Angel [04:08]
12. George Michael - My Baby Just Cares for Me [01:43]
13. George Michael - Brother Can You Spare a Dime? (performed at Pavarotti & friends) [04:27]
14. George Michael - Please Send Me Someone (Anselmo's Song) [05:25]
15. George Michael - Through [04:54]
Exact Audio Copy V0.99 prebeta 4 from 23. January 2008

Отчёт EAC об извлечении, выполненном 17. декабря 2008, 13:54

George Michael / Twenty Five (CD 1, For Living)

Дисковод: ASUS DRW-1608P Adapter: 0 ID: 0

Режим чтения : Достоверность
Использование точного потока : Да
Отключение кэша аудио : Да
Использование указателей C2 : Нет

Коррекция смещения при чтении : 48
Способность читать области Lead-in и Lead-out : Нет
Заполнение пропущенных сэмплов тишиной : Да
Удаление блоков с тишиной в начале и конце : Нет
При вычислениях CRC использовались нулевые сэмплы : Да
Интерфейс : Встроенный Win32-интерфейс для Win NT/2000

Выходной формат : Внутренние WAV-операции
Формат сэмплов : 44.100 Гц; 16 бит; стерео


TOC извлечённого CD

Трек | Старт | Длительность | Начальный сектор | Конечный сектор
---------------------------------------------------------------------
1 | 0:00.00 | 6:33.58 | 0 | 29532
2 | 6:33.58 | 3:52.30 | 29533 | 46962
3 | 10:26.13 | 5:20.21 | 46963 | 70983
4 | 15:46.34 | 3:15.62 | 70984 | 85670
5 | 19:02.21 | 3:46.19 | 85671 | 102639
6 | 22:48.40 | 5:28.46 | 102640 | 127285
7 | 28:17.11 | 6:30.12 | 127286 | 156547
8 | 34:47.23 | 6:09.00 | 156548 | 184222
9 | 40:56.23 | 4:44.69 | 184223 | 205591
10 | 45:41.17 | 4:43.40 | 205592 | 226856
11 | 50:24.57 | 4:32.06 | 226857 | 247262
12 | 54:56.63 | 5:08.58 | 247263 | 270420
13 | 60:05.46 | 4:25.67 | 270421 | 290362
14 | 64:31.38 | 4:50.12 | 290363 | 312124
15 | 69:21.50 | 4:38.43 | 312125 | 333017


Характеристики диапазона извлечения и сообщения об ошибках

Выбранный диапазон

Имя файла E:\George Michael + Wham!\[2006] TwentyFive (3CD)\George Michael - Twenty Five (CD 1, For Living).wav

Пиковый уровень 100.0 %
Качество диапазона 100.0 %
CRC теста BDDF813E
CRC копии BDDF813E
Копирование... OK

Ошибок не произошло


AccurateRip: сводка

Трек 1 точное извлечение (доверие 68) [E565BA4F]
Трек 2 точное извлечение (доверие 69) [717858A0]
Трек 3 точное извлечение (доверие 68) [23CC22E1]
Трек 4 точное извлечение (доверие 70) [7E245CEC]
Трек 5 точное извлечение (доверие 69) [55FAF29C]
Трек 6 точное извлечение (доверие 72) [D533923E]
Трек 7 точное извлечение (доверие 69) [6DF36202]
Трек 8 точное извлечение (доверие 69) [451D656C]
Трек 9 точное извлечение (доверие 69) [0D2D25B1]
Трек 10 точное извлечение (доверие 68) [C678667B]
Трек 11 точное извлечение (доверие 66) [F111EE10]
Трек 12 точное извлечение (доверие 65) [ED4AB46F]
Трек 13 точное извлечение (доверие 68) [36044E1A]
Трек 14 точное извлечение (доверие 67) [9D34949A]
Трек 15 точное извлечение (доверие 65) [9C3A228C]

Все треки извлечены точно

Конец отчёта

/////////////////////////////////////////////////////////////////////////////////////////

Exact Audio Copy V0.99 prebeta 4 from 23. January 2008

Отчёт EAC об извлечении, выполненном 17. декабря 2008, 14:13

George Michael / Twenty Five (CD 2, For Loving)

Дисковод: ASUS DRW-1608P Adapter: 0 ID: 0

Режим чтения : Достоверность
Использование точного потока : Да
Отключение кэша аудио : Да
Использование указателей C2 : Нет

Коррекция смещения при чтении : 48
Способность читать области Lead-in и Lead-out : Нет
Заполнение пропущенных сэмплов тишиной : Да
Удаление блоков с тишиной в начале и конце : Нет
При вычислениях CRC использовались нулевые сэмплы : Да
Интерфейс : Встроенный Win32-интерфейс для Win NT/2000

Выходной формат : Внутренние WAV-операции
Формат сэмплов : 44.100 Гц; 16 бит; стерео


TOC извлечённого CD

Трек | Старт | Длительность | Начальный сектор | Конечный сектор
---------------------------------------------------------------------
1 | 0:00.00 | 5:04.36 | 0 | 22835
2 | 5:04.36 | 4:27.12 | 22836 | 42872
3 | 9:31.48 | 4:03.02 | 42873 | 61099
4 | 13:34.50 | 5:40.39 | 61100 | 86638
5 | 19:15.14 | 5:53.14 | 86639 | 113127
6 | 25:08.28 | 4:41.42 | 113128 | 134244
7 | 29:49.70 | 4:43.36 | 134245 | 155505
8 | 34:33.31 | 5:48.40 | 155506 | 181645
9 | 40:21.71 | 6:50.04 | 181646 | 212399
10 | 47:12.00 | 5:34.64 | 212400 | 237513
11 | 52:46.64 | 5:55.41 | 237514 | 264179
12 | 58:42.30 | 5:28.42 | 264180 | 288821
13 | 64:10.72 | 4:23.52 | 288822 | 308598
14 | 68:34.49 | 4:56.38 | 308599 | 330836


Характеристики диапазона извлечения и сообщения об ошибках

Выбранный диапазон

Имя файла E:\George Michael + Wham!\[2006] TwentyFive (3CD)\George Michael - Twenty Five (CD 2, For Loving).wav

Пиковый уровень 99.6 %
Качество диапазона 99.9 %
CRC теста 846D7E21
CRC копии 846D7E21
Копирование... OK

Ошибок не произошло


AccurateRip: сводка

Трек 1 точное извлечение (доверие 69) [6EAD7189]
Трек 2 точное извлечение (доверие 68) [647C936F]
Трек 3 точное извлечение (доверие 67) [6312B8BF]
Трек 4 точное извлечение (доверие 68) [0F045C49]
Трек 5 точное извлечение (доверие 68) [D1F927FE]
Трек 6 точное извлечение (доверие 67) [B266886C]
Трек 7 точное извлечение (доверие 67) [3D580BED]
Трек 8 точное извлечение (доверие 70) [77B3A013]
Трек 9 точное извлечение (доверие 68) [3A6CC50F]
Трек 10 точное извлечение (доверие 66) [7A503439]
Трек 11 точное извлечение (доверие 67) [ECCB603A]
Трек 12 точное извлечение (доверие 69) [E2FB7655]
Трек 13 точное извлечение (доверие 66) [FF17FFE9]
Трек 14 точное извлечение (доверие 67) [EA08D0A8]

Все треки извлечены точно

Конец отчёта

///////////////////////////////////////////////////////////////////////////////////

Exact Audio Copy V0.99 prebeta 4 from 23. January 2008

Отчёт EAC об извлечении, выполненном 17. декабря 2008, 14:33

George Michael / Twentyfive (CD 3 - For the Loyal)

Дисковод: ASUS DRW-1608P Adapter: 0 ID: 0

Режим чтения : Достоверность
Использование точного потока : Да
Отключение кэша аудио : Да
Использование указателей C2 : Нет

Коррекция смещения при чтении : 48
Способность читать области Lead-in и Lead-out : Нет
Заполнение пропущенных сэмплов тишиной : Да
Удаление блоков с тишиной в начале и конце : Нет
При вычислениях CRC использовались нулевые сэмплы : Да
Интерфейс : Встроенный Win32-интерфейс для Win NT/2000

Выходной формат : Внутренние WAV-операции
Формат сэмплов : 44.100 Гц; 16 бит; стерео


TOC извлечённого CD

Трек | Старт | Длительность | Начальный сектор | Конечный сектор
---------------------------------------------------------------------
1 | 0:00.00 | 5:55.59 | 0 | 26683
2 | 5:55.59 | 7:38.05 | 26684 | 61038
3 | 13:33.64 | 4:10.48 | 61039 | 79836
4 | 17:44.37 | 5:02.48 | 79837 | 102534
5 | 22:47.10 | 5:51.30 | 102535 | 128889
6 | 28:38.40 | 2:53.02 | 128890 | 141866
7 | 31:31.42 | 4:32.08 | 141867 | 162274
8 | 36:03.50 | 6:19.43 | 162275 | 190742
9 | 42:23.18 | 3:43.61 | 190743 | 207528
10 | 46:07.04 | 4:25.01 | 207529 | 227404
11 | 50:32.05 | 4:08.42 | 227405 | 246046
12 | 54:40.47 | 1:43.17 | 246047 | 253788
13 | 56:23.64 | 4:27.05 | 253789 | 273818
14 | 60:50.69 | 5:25.47 | 273819 | 298240
15 | 66:16.41 | 4:54.68 | 298241 | 320358


Характеристики диапазона извлечения и сообщения об ошибках

Выбранный диапазон

Имя файла E:\George Michael + Wham!\[2006] TwentyFive (3CD)\George Michael - Twenty Five (CD 3, For the Loyal).wav

Пиковый уровень 99.8 %
Качество диапазона 100.0 %
CRC теста 0668B46B
CRC копии 0668B46B
Копирование... OK

Ошибок не произошло


AccurateRip: сводка

Трек 1 точное извлечение (доверие 35) [16847B3F]
Трек 2 точное извлечение (доверие 36) [CA6E7F91]
Трек 3 точное извлечение (доверие 37) [39175365]
Трек 4 точное извлечение (доверие 36) [0E25123B]
Трек 5 точное извлечение (доверие 35) [C5FA8DE2]
Трек 6 точное извлечение (доверие 37) [C4E633F0]
Трек 7 точное извлечение (доверие 36) [804622A2]
Трек 8 точное извлечение (доверие 36) [D4E76DCC]
Трек 9 точное извлечение (доверие 35) [821EDBB4]
Трек 10 точное извлечение (доверие 36) [ED3B956D]
Трек 11 точное извлечение (доверие 36) [F87390D9]
Трек 12 точное извлечение (доверие 36) [ADFDD86E]
Трек 13 точное извлечение (доверие 37) [A1138992]
Трек 14 точное извлечение (доверие 35) [7DCCB6AD]
Трек 15 точное извлечение (доверие 36) [D08F8C33]

Все треки извлечены точно

Конец отчёта
AUDIOCHECKER v2.0 beta (build 457) - by Dester - [email protected]
~~~~~~~~~~~~~~~~~~~~~~~~~~~~~~~~~~
-=== НЕ РЕДАКТИРУЙТЕ ЭТОТ ФАЙЛ! ===-

Путь: ...\George Michael - Twenty Five [3CD-Set] (2006)

1 -=- George Michael - Twenty Five (CD 1, For Living).flac -=- CDDA (100%)
2 -=- George Michael - Twenty Five (CD 2, For Loving).flac -=- CDDA (100%)
3 -=- George Michael - Twenty Five (CD 3, For the Loyal).flac -=- CDDA (100%)

Сводка 100,00% CDDA

200963652






 
Последнее редактирование:

sergych

Ёшкин кот
VIP
Сообщения
2,236
Реакции
8,407
2012 - White Light (single)




Исполнитель/Artist: George Michael
Альбом/Album: White Light
Год/Year: 2012
Жанр/Genre: Dance-pop, electronic, trance
Страна/Country: Германия
Рекорд-лейбл/Record label: Island Records
Номер в каталоге/Catalogue #: 3710020
Формат/Format: Free Lossless Audio Codec (*.flac)
Качество/Quality: Lossless
Тип рипа/RIP Type: tracks+.cue
Продолжительность/Length: 00:21:53
Источник/Source: Собственный рип
Размер/Size: 173.3 MB

Сканы в комплекте

01 - White Light
02 - Song to the Siren
03 - White Light (Voodoo Sonics Remix)
04 - White Light (Kinky Roland Remix
Exact Audio Copy V1.0 beta 3 from 29. August 2011

EAC extraction logfile from 9. August 2013, 13:40

George Michael / White Light

Used drive : ATAPI iHAS124 D Adapter: 0 ID: 2

Read mode : Secure
Utilize accurate stream : Yes
Defeat audio cache : Yes
Make use of C2 pointers : No

Read offset correction : 6
Overread into Lead-In and Lead-Out : No
Fill up missing offset samples with silence : Yes
Delete leading and trailing silent blocks : No
Null samples used in CRC calculations : Yes
Used interface : Installed external ASPI interface
Gap handling : Appended to previous track

Used output format : User Defined Encoder
Selected bitrate : 1024 kBit/s
Quality : High
Add ID3 tag : No
Command line compressor : C:\Program Files (x86)\Exact Audio Copy\FLAC\FLAC.EXE
Additional command line options : -6 -V -T "ARTIST=%artist%" -T "TITLE=%title%" -T "ALBUM=%albumtitle%" -T "DATE=%year%" -T "TRACKNUMBER=%tracknr%" -T "GENRE=%genre%" -T "COMMENT=%comment%" -T "BAND=%albuminterpret%" -T "ALBUMARTIST=%albuminterpret%" -T "COMPOSER=%composer%" %haslyrics%--tag-from-file=LYRICS="%lyricsfile%"%haslyrics% -T "DISCNUMBER=%cdnumber%" -T "TOTALDISCS=%totalcds%" -T "TOTALTRACKS=%numtracks%" %hascover%--picture="%coverfile%"%hascover% %source% -o %dest%


TOC of the extracted CD

Track | Start | Length | Start sector | End sector
---------------------------------------------------------
1 | 0:00.00 | 4:38.21 | 0 | 20870
2 | 4:38.21 | 3:36.11 | 20871 | 37081
3 | 8:14.32 | 7:01.12 | 37082 | 68668
4 | 15:15.44 | 6:47.11 | 68669 | 99204


Track 1

Filename C:\mm\George Michael\2012 - White Light [single]\01 - White Light.wav

Pre-gap length 0:00:02.00

Peak level 98.8 %
Extraction speed 5.5 X
Track quality 100.0 %
Test CRC BE78D4D4
Copy CRC BE78D4D4
Accurately ripped (confidence 8) [5593674D] (AR v2)
Copy OK

Track 2

Filename C:\mm\George Michael\2012 - White Light [single]\02 - Song To The Sirene.wav

Pre-gap length 0:00:02.74

Peak level 96.1 %
Extraction speed 4.9 X
Track quality 99.9 %
Test CRC 302B21B9
Copy CRC 302B21B9
Accurately ripped (confidence 7) [C9AF7245] (AR v2)
Copy OK

Track 3

Filename C:\mm\George Michael\2012 - White Light [single]\03 - White Light (Voodoo Sonics Remix).wav

Pre-gap length 0:00:02.73

Peak level 95.9 %
Extraction speed 7.0 X
Track quality 100.0 %
Test CRC 7B61E119
Copy CRC 7B61E119
Accurately ripped (confidence 6) [93D0A5A0] (AR v2)
Copy OK

Track 4

Filename C:\mm\George Michael\2012 - White Light [single]\04 - White Light (Kinky Roland Remix).wav

Pre-gap length 0:00:02.74

Peak level 95.9 %
Extraction speed 7.8 X
Track quality 100.0 %
Test CRC A0FC3468
Copy CRC A0FC3468
Accurately ripped (confidence 7) [14886816] (AR v2)
Copy OK


All tracks accurately ripped

No errors occurred

End of status report
AUDIOCHECKER v2.0 beta (build 457) - by Dester - [email protected]
~~~~~~~~~~~~~~~~~~~~~~~~~~~~~~~~~~
-=== НЕ РЕДАКТИРУЙТЕ ЭТОТ ФАЙЛ! ===-

Путь: ...\2012 - White Light [single]

1 -=- 01 - White Light.flac -=- CDDA (100%)
2 -=- 02 - Song To The Sirene.flac -=- CDDA (100%)
3 -=- 03 - White Light (Voodoo Sonics Remix).flac -=- CDDA (100%)
4 -=- 04 - White Light (Kinky Roland Remix).flac -=- CDDA (100%)

Сводка 100,00% CDDA

221275284

 
Последнее редактирование модератором:

sergych

Ёшкин кот
VIP
Сообщения
2,236
Реакции
8,407
1987(2010) - Faith (2xCD)




Исполнитель/Artist: George Michael
Альбом/Album: Faith (2xCD)
Год/Year: 1987
Ремастеринг/Remaster: 2010
Жанр/Genre: Pop, pop rock, R&B, British soul, adult contemporary
Страна/Country: Россия
Рекорд-лейбл/Record label: Sony Music / СОНИ ДАДС
Номер в каталоге/Catalogue #: 88697997462
Формат/Format: Free Lossless Audio Codec (*.flac)
Качество/Quality: Lossless
Тип рипа/RIP Type: tracks+.cue
Продолжительность/Length: 01:45:30
Источник/Source: Собственный рип
Размер/Size: 739.7 MB

Сканы в комплекте

CD1
01 - Faith
02 - Father Figure
03 - I Want Your Sex (Parts I & II)
04 - One More Try
05 - Hard Day
06 - Hand To Mouth
07 - Look At Your Hands
08 - Monkey
09 - Kissing A Fool
10 - A Last Request (I Want Your Sex Part III)

CD2
01 - Faith [Instrumental]
02 - Fantasy
03 - Hard Day [Shep Pettibone Mix]
04 - I Believe When I Fall in Love
05 - Kissing a Fool [Instrumental]
06 - Love's in Need of Love Today [Live]
07 - Monkey [7'' Edit Version]
08 - Monkey [A Cappella & Beats]
09 - Monkey [Jam & Lewis Remix]
CD1
Exact Audio Copy V1.0 beta 3 from 29. August 2011

EAC extraction logfile from 23. August 2013, 21:54

George Michael / Faith [remastered]

Used drive : ATAPI iHAS124 D Adapter: 0 ID: 2

Read mode : Secure
Utilize accurate stream : Yes
Defeat audio cache : Yes
Make use of C2 pointers : No

Read offset correction : 6
Overread into Lead-In and Lead-Out : No
Fill up missing offset samples with silence : Yes
Delete leading and trailing silent blocks : No
Null samples used in CRC calculations : Yes
Used interface : Installed external ASPI interface
Gap handling : Appended to previous track

Used output format : User Defined Encoder
Selected bitrate : 1024 kBit/s
Quality : High
Add ID3 tag : No
Command line compressor : C:\Program Files (x86)\Exact Audio Copy\FLAC\FLAC.EXE
Additional command line options : -6 -V -T "ARTIST=%artist%" -T "TITLE=%title%" -T "ALBUM=%albumtitle%" -T "DATE=%year%" -T "TRACKNUMBER=%tracknr%" -T "GENRE=%genre%" -T "COMMENT=%comment%" -T "BAND=%albuminterpret%" -T "ALBUMARTIST=%albuminterpret%" -T "COMPOSER=%composer%" %haslyrics%--tag-from-file=LYRICS="%lyricsfile%"%haslyrics% -T "DISCNUMBER=%cdnumber%" -T "TOTALDISCS=%totalcds%" -T "TOTALTRACKS=%numtracks%" %hascover%--picture="%coverfile%"%hascover% %source% -o %dest%


TOC of the extracted CD

Track | Start | Length | Start sector | End sector
---------------------------------------------------------
1 | 0:00.00 | 3:13.15 | 0 | 14489
2 | 3:13.15 | 5:36.50 | 14490 | 39739
3 | 8:49.65 | 9:17.22 | 39740 | 81536
4 | 18:07.12 | 5:50.50 | 81537 | 107836
5 | 23:57.62 | 4:48.05 | 107837 | 129441
6 | 28:45.67 | 4:36.15 | 129442 | 150156
7 | 33:22.07 | 4:37.60 | 150157 | 170991
8 | 37:59.67 | 5:06.09 | 170992 | 193950
9 | 43:06.01 | 4:40.54 | 193951 | 215004
10 | 47:46.55 | 3:47.27 | 215005 | 232056


Track 1

Filename C:\mm\George Michael\1987(2010) - Faith (2xCD)\CD1\01 - Faith.wav

Pre-gap length 0:00:02.00

Peak level 98.3 %
Extraction speed 1.3 X
Track quality 99.9 %
Test CRC A242AF1D
Copy CRC A242AF1D
Cannot be verified as accurate (confidence 44) [901A44E5], AccurateRip returned [60A06BE4] (AR v2)
Copy OK

Track 2

Filename C:\mm\George Michael\1987(2010) - Faith (2xCD)\CD1\02 - Father Figure.wav

Peak level 98.2 %
Extraction speed 1.8 X
Track quality 99.9 %
Test CRC 512700FE
Copy CRC 512700FE
Cannot be verified as accurate (confidence 44) [C8346B3C], AccurateRip returned [CE33B78A] (AR v2)
Copy OK

Track 3

Filename C:\mm\George Michael\1987(2010) - Faith (2xCD)\CD1\03 - I Want Your Sex (Parts I & II).wav

Peak level 91.3 %
Extraction speed 2.8 X
Track quality 100.0 %
Test CRC 650C2F78
Copy CRC 650C2F78
Cannot be verified as accurate (confidence 43) [C570D494], AccurateRip returned [E3124129] (AR v2)
Copy OK

Track 4

Filename C:\mm\George Michael\1987(2010) - Faith (2xCD)\CD1\04 - One More Try.wav

Peak level 98.2 %
Extraction speed 3.0 X
Track quality 100.0 %
Test CRC 6075022D
Copy CRC 6075022D
Cannot be verified as accurate (confidence 44) [9D174DBF], AccurateRip returned [1BCEB0E1] (AR v2)
Copy OK

Track 5

Filename C:\mm\George Michael\1987(2010) - Faith (2xCD)\CD1\05 - Hard Day.wav

Peak level 98.5 %
Extraction speed 3.1 X
Track quality 100.0 %
Test CRC 840D5919
Copy CRC 840D5919
Cannot be verified as accurate (confidence 44) [A0858809], AccurateRip returned [B1C0C8B4] (AR v2)
Copy OK

Track 6

Filename C:\mm\George Michael\1987(2010) - Faith (2xCD)\CD1\06 - Hand To Mouth.wav

Peak level 98.3 %
Extraction speed 2.5 X
Track quality 99.9 %
Test CRC EE49AD2D
Copy CRC EE49AD2D
Cannot be verified as accurate (confidence 44) [3CBCE55E], AccurateRip returned [029D7A34] (AR v2)
Copy OK

Track 7

Filename C:\mm\George Michael\1987(2010) - Faith (2xCD)\CD1\07 - Look At Your Hands.wav

Peak level 98.2 %
Extraction speed 3.4 X
Track quality 100.0 %
Test CRC 5433A337
Copy CRC 5433A337
Cannot be verified as accurate (confidence 44) [2D475F55], AccurateRip returned [4B385BEC] (AR v2)
Copy OK

Track 8

Filename C:\mm\George Michael\1987(2010) - Faith (2xCD)\CD1\08 - Monkey.wav

Peak level 98.2 %
Extraction speed 3.6 X
Track quality 100.0 %
Test CRC A0DFCDC5
Copy CRC A0DFCDC5
Cannot be verified as accurate (confidence 44) [9A35325B], AccurateRip returned [3627F930] (AR v2)
Copy OK

Track 9

Filename C:\mm\George Michael\1987(2010) - Faith (2xCD)\CD1\09 - Kissing A Fool.wav

Peak level 97.7 %
Extraction speed 3.7 X
Track quality 100.0 %
Test CRC DA3C2E80
Copy CRC DA3C2E80
Cannot be verified as accurate (confidence 44) [44772521], AccurateRip returned [80488522] (AR v2)
Copy OK

Track 10

Filename C:\mm\George Michael\1987(2010) - Faith (2xCD)\CD1\10 - A Last Request (I Want Your Sex Part III).wav

Peak level 97.3 %
Extraction speed 3.7 X
Track quality 100.0 %
Test CRC 27345E47
Copy CRC 27345E47
Cannot be verified as accurate (confidence 44) [3B987486], AccurateRip returned [074CB0F1] (AR v2)
Copy OK


No tracks could be verified as accurate
You may have a different pressing from the one(s) in the database

No errors occurred

End of status report

CD2
Exact Audio Copy V1.0 beta 3 from 29. August 2011

EAC extraction logfile from 23. August 2013, 22:43

George Michael / Faith [remastered] CD2

Used drive : ATAPI iHAS124 D Adapter: 0 ID: 2

Read mode : Secure
Utilize accurate stream : Yes
Defeat audio cache : Yes
Make use of C2 pointers : No

Read offset correction : 6
Overread into Lead-In and Lead-Out : No
Fill up missing offset samples with silence : Yes
Delete leading and trailing silent blocks : No
Null samples used in CRC calculations : Yes
Used interface : Installed external ASPI interface
Gap handling : Appended to previous track

Used output format : User Defined Encoder
Selected bitrate : 1024 kBit/s
Quality : High
Add ID3 tag : No
Command line compressor : C:\Program Files (x86)\Exact Audio Copy\FLAC\FLAC.EXE
Additional command line options : -6 -V -T "ARTIST=%artist%" -T "TITLE=%title%" -T "ALBUM=%albumtitle%" -T "DATE=%year%" -T "TRACKNUMBER=%tracknr%" -T "GENRE=%genre%" -T "COMMENT=%comment%" -T "BAND=%albuminterpret%" -T "ALBUMARTIST=%albuminterpret%" -T "COMPOSER=%composer%" %haslyrics%--tag-from-file=LYRICS="%lyricsfile%"%haslyrics% -T "DISCNUMBER=%cdnumber%" -T "TOTALDISCS=%totalcds%" -T "TOTALTRACKS=%numtracks%" %hascover%--picture="%coverfile%"%hascover% %source% -o %dest%


TOC of the extracted CD

Track | Start | Length | Start sector | End sector
---------------------------------------------------------
1 | 0:00.00 | 3:07.55 | 0 | 14079
2 | 3:07.55 | 5:02.69 | 14080 | 36798
3 | 8:10.49 | 9:05.39 | 36799 | 77712
4 | 17:16.13 | 7:05.22 | 77713 | 109609
5 | 24:21.35 | 4:37.01 | 109610 | 130385
6 | 28:58.36 | 4:46.28 | 130386 | 151863
7 | 33:44.64 | 4:52.59 | 151864 | 173822
8 | 38:37.48 | 7:30.44 | 173823 | 207616
9 | 46:08.17 | 8:06.08 | 207617 | 244074


Track 1

Filename C:\mm\George Michael\1987(2010) - Faith (2xCD)\CD2\01 - Faith [Instrumental].wav

Pre-gap length 0:00:02.00

Peak level 98.3 %
Extraction speed 1.9 X
Track quality 100.0 %
Test CRC AAAC95EB
Copy CRC AAAC95EB
Cannot be verified as accurate (confidence 35) [A29F2ECF], AccurateRip returned [DDF30B7D] (AR v2)
Copy OK

Track 2

Filename C:\mm\George Michael\1987(2010) - Faith (2xCD)\CD2\02 - Fantasy.wav

Peak level 96.6 %
Extraction speed 2.3 X
Track quality 100.0 %
Test CRC 30E44B99
Copy CRC 30E44B99
Cannot be verified as accurate (confidence 35) [A70095EA], AccurateRip returned [EF64B638] (AR v2)
Copy OK

Track 3

Filename C:\mm\George Michael\1987(2010) - Faith (2xCD)\CD2\03 - Hard Day [Shep Pettibone Mix].wav

Peak level 95.9 %
Extraction speed 2.7 X
Track quality 100.0 %
Test CRC ABB3BDD5
Copy CRC ABB3BDD5
Cannot be verified as accurate (confidence 36) [7665AF5B], AccurateRip returned [2E0335AA] (AR v2)
Copy OK

Track 4

Filename C:\mm\George Michael\1987(2010) - Faith (2xCD)\CD2\04 - I Believe When I Fall in Love.wav

Pre-gap length 0:00:02.54

Peak level 96.6 %
Extraction speed 2.5 X
Track quality 99.9 %
Test CRC 8EF7AE69
Copy CRC 8EF7AE69
Cannot be verified as accurate (confidence 35) [5FBDE1D5], AccurateRip returned [67D0FACD] (AR v2)
Copy OK

Track 5

Filename C:\mm\George Michael\1987(2010) - Faith (2xCD)\CD2\05 - Kissing a Fool [Instrumental].wav

Pre-gap length 0:00:02.35

Peak level 95.2 %
Extraction speed 3.1 X
Track quality 100.0 %
Test CRC C8743DBA
Copy CRC C8743DBA
Cannot be verified as accurate (confidence 35) [67D0CF3D], AccurateRip returned [23B2CAA8] (AR v2)
Copy OK

Track 6

Filename C:\mm\George Michael\1987(2010) - Faith (2xCD)\CD2\06 - Love's in Need of Love Today [Live].wav

Pre-gap length 0:00:03.27

Peak level 96.1 %
Extraction speed 3.3 X
Track quality 100.0 %
Test CRC D3A66B1A
Copy CRC D3A66B1A
Cannot be verified as accurate (confidence 35) [773F8A9A], AccurateRip returned [5FECF7BB] (AR v2)
Copy OK

Track 7

Filename C:\mm\George Michael\1987(2010) - Faith (2xCD)\CD2\07 - Monkey [7'' Edit Version].wav

Pre-gap length 0:00:02.72

Peak level 96.8 %
Extraction speed 2.7 X
Track quality 99.9 %
Test CRC E2552C21
Copy CRC E2552C21
Cannot be verified as accurate (confidence 34) [66DA84AF], AccurateRip returned [6B5DBF43] (AR v2)
Copy OK

Track 8

Filename C:\mm\George Michael\1987(2010) - Faith (2xCD)\CD2\08 - Monkey [A Cappella & Beats].wav

Pre-gap length 0:00:02.73

Peak level 96.7 %
Extraction speed 3.8 X
Track quality 100.0 %
Test CRC 2C6F6DCF
Copy CRC 2C6F6DCF
Cannot be verified as accurate (confidence 35) [0F13DD99], AccurateRip returned [F2FFC015] (AR v2)
Copy OK

Track 9

Filename C:\mm\George Michael\1987(2010) - Faith (2xCD)\CD2\09 - Monkey [Jam & Lewis Remix].wav

Pre-gap length 0:00:02.73

Peak level 97.1 %
Extraction speed 4.1 X
Track quality 100.0 %
Test CRC 94A83E6C
Copy CRC 94A83E6C
Cannot be verified as accurate (confidence 35) [521A5851], AccurateRip returned [0C817294] (AR v2)
Copy OK


No tracks could be verified as accurate
You may have a different pressing from the one(s) in the database

No errors occurred

End of status report
CD1
AUDIOCHECKER v2.0 beta (build 457) - by Dester - [email protected]
~~~~~~~~~~~~~~~~~~~~~~~~~~~~~~~~~~
-=== НЕ РЕДАКТИРУЙТЕ ЭТОТ ФАЙЛ! ===-

Путь: ...\CD1

01 -=- 01 - Faith.flac -=- CDDA (42%)
02 -=- 02 - Father Figure.flac -=- CDDA (100%)
03 -=- 03 - I Want Your Sex (Parts I & II).flac -=- CDDA (100%)
04 -=- 04 - One More Try.flac -=- CDDA (100%)
05 -=- 05 - Hard Day.flac -=- CDDA (100%)
06 -=- 06 - Hand To Mouth.flac -=- CDDA (100%)
07 -=- 07 - Look At Your Hands.flac -=- CDDA (100%)
08 -=- 08 - Monkey.flac -=- CDDA (99%)
09 -=- 09 - Kissing A Fool.flac -=- CDDA (100%)
10 -=- 10 - A Last Request (I Want Your Sex Part III).flac -=- CDDA (100%)

Сводка 94,10% CDDA

268101412

CD2
AUDIOCHECKER v2.0 beta (build 457) - by Dester - [email protected]
~~~~~~~~~~~~~~~~~~~~~~~~~~~~~~~~~~
-=== НЕ РЕДАКТИРУЙТЕ ЭТОТ ФАЙЛ! ===-

Путь: ...\CD2

1 -=- 01 - Faith [Instrumental].flac -=- CDDA (42%)
2 -=- 02 - Fantasy.flac -=- CDDA (100%)
3 -=- 03 - Hard Day [Shep Pettibone Mix].flac -=- CDDA (100%)
4 -=- 04 - I Believe When I Fall in Love.flac -=- CDDA (100%)
5 -=- 05 - Kissing a Fool [Instrumental].flac -=- CDDA (100%)
6 -=- 06 - Love's in Need of Love Today [Live].flac -=- CDDA (100%)
7 -=- 07 - Monkey [7'' Edit Version].flac -=- CDDA (100%)
8 -=- 08 - Monkey [A Cappella & Beats].flac -=- CDDA (100%)
9 -=- 09 - Monkey [Jam & Lewis Remix].flac -=- CDDA (100%)

Сводка 93,56% CDDA

70764436

 
Последнее редактирование модератором:

sergych

Ёшкин кот
VIP
Сообщения
2,236
Реакции
8,407
1984 - Wham! - Make It Big

1984 - Wham! - Make It Big




Исполнитель/Artist: Wham!
Альбом/Album: Make It Big
Год/Year: 1984
Жанр/Genre: New Wave, synthpop, post-disco, blue-eyed soul
Рекорд-лейбл/Record label: EPIC / SONY
Номер в каталоге/Catalogue #: 465576 2 / 5099746557621
Формат/Format: Free Lossless Audio Codec (*.flac)
Качество/Quality: Lossless
Тип рипа/RIP Type: tracks+.cue
Продолжительность/Length: 00:38:10
Источник/Source: Собственный рип
Размер/Size: 289.2 MB

Сканы в комплекте

01 - Wake Me Up Before You Go-Go
02 - Everything She Wants
03 - Heartbeat
04 - Like a Baby
05 - Freedom
06 - If You Were There
07 - Credit Card Baby
08 - Careless Whisper
Exact Audio Copy V1.0 beta 3 from 29. August 2011

EAC extraction logfile from 16. November 2013, 0:41

Wham! / Make It Big

Used drive : ATAPI iHAS124 D Adapter: 0 ID: 2

Read mode : Secure
Utilize accurate stream : Yes
Defeat audio cache : Yes
Make use of C2 pointers : No

Read offset correction : 6
Overread into Lead-In and Lead-Out : No
Fill up missing offset samples with silence : Yes
Delete leading and trailing silent blocks : No
Null samples used in CRC calculations : Yes
Used interface : Installed external ASPI interface
Gap handling : Appended to previous track

Used output format : User Defined Encoder
Selected bitrate : 1024 kBit/s
Quality : High
Add ID3 tag : No
Command line compressor : C:\Program Files (x86)\Exact Audio Copy\Flac\flac.exe
Additional command line options : -6 -V -T "ARTIST=%artist%" -T "TITLE=%title%" -T "ALBUM=%albumtitle%" -T "DATE=%year%" -T "TRACKNUMBER=%tracknr%" -T "GENRE=%genre%" -T "COMMENT=%comment%" -T "BAND=%albuminterpret%" -T "COMPOSER=%composer%" %haslyrics%--tag-from-file=LYRICS="%lyricsfile%"%haslyrics% -T "DISCNUMBER=%cdnumber%" -T "TOTALDISCS=%totalcds%" -T "TOTALTRACKS=%numtracks%" %hascover%--picture="%coverfile%"%hascover% %source% -o %dest%


TOC of the extracted CD

Track | Start | Length | Start sector | End sector
---------------------------------------------------------
1 | 0:00.00 | 3:50.52 | 0 | 17301
2 | 3:50.52 | 5:02.28 | 17302 | 39979
3 | 8:53.05 | 4:44.15 | 39980 | 61294
4 | 13:37.20 | 4:13.42 | 61295 | 80311
5 | 17:50.62 | 5:00.53 | 80312 | 102864
6 | 22:51.40 | 3:37.32 | 102865 | 119171
7 | 26:28.72 | 5:08.05 | 119172 | 142276
8 | 31:37.02 | 6:33.73 | 142277 | 171824


Track 1

Filename C:\mm\Wham!\1984 - Make It Big [465576 2]\01 - Wake Me Up Before You Go-Go.wav

Pre-gap length 0:00:02.00

Peak level 94.4 %
Extraction speed 5.2 X
Track quality 100.0 %
Test CRC 709433C4
Copy CRC 709433C4
Accurately ripped (confidence 16) [9DA586A1] (AR v2)
Copy OK

Track 2

Filename C:\mm\Wham!\1984 - Make It Big [465576 2]\02 - Everything She Wants.wav

Peak level 94.4 %
Extraction speed 6.0 X
Track quality 100.0 %
Test CRC A83D4213
Copy CRC A83D4213
Accurately ripped (confidence 16) [F14C02B1] (AR v2)
Copy OK

Track 3

Filename C:\mm\Wham!\1984 - Make It Big [465576 2]\03 - Heartbeat.wav

Peak level 94.4 %
Extraction speed 5.8 X
Track quality 99.9 %
Test CRC 925CF166
Copy CRC 925CF166
Accurately ripped (confidence 17) [B39C67B0] (AR v2)
Copy OK

Track 4

Filename C:\mm\Wham!\1984 - Make It Big [465576 2]\04 - Like a Baby.wav

Peak level 100.0 %
Extraction speed 7.1 X
Track quality 100.0 %
Test CRC 8C307839
Copy CRC 8C307839
Accurately ripped (confidence 16) [849EE489] (AR v2)
Copy OK

Track 5

Filename C:\mm\Wham!\1984 - Make It Big [465576 2]\05 - Freedom.wav

Peak level 94.4 %
Extraction speed 7.7 X
Track quality 100.0 %
Test CRC 37FF674B
Copy CRC 37FF674B
Accurately ripped (confidence 16) [F0BE482F] (AR v2)
Copy OK

Track 6

Filename C:\mm\Wham!\1984 - Make It Big [465576 2]\06 - If You Were There.wav

Peak level 94.4 %
Extraction speed 6.5 X
Track quality 99.9 %
Test CRC 1096C68C
Copy CRC 1096C68C
Accurately ripped (confidence 16) [B2E4DFB7] (AR v2)
Copy OK

Track 7

Filename C:\mm\Wham!\1984 - Make It Big [465576 2]\07 - Credit Card Baby.wav

Peak level 94.4 %
Extraction speed 7.5 X
Track quality 99.9 %
Test CRC 06DBD371
Copy CRC 06DBD371
Accurately ripped (confidence 16) [50D33A7E] (AR v2)
Copy OK

Track 8

Filename C:\mm\Wham!\1984 - Make It Big [465576 2]\08 - Careless Whisper.wav

Peak level 94.4 %
Extraction speed 9.3 X
Track quality 100.0 %
Test CRC A2BC14D8
Copy CRC A2BC14D8
Accurately ripped (confidence 17) [19F06E2D] (AR v2)
Copy OK


All tracks accurately ripped

No errors occurred

End of status report

---- CUETools DB Plugin V2.1.3

[CTDB TOCID: F0m4iOC3RWmCWtpBjgU9hXJfWoc-] found, Submit result: F0m4iOC3RWmCWtpBjgU9hXJfWoc- has been confirmed
[b7c0f716] (26/26) Accurately ripped
AUDIOCHECKER v2.0 beta (build 457) - by Dester - [email protected]
~~~~~~~~~~~~~~~~~~~~~~~~~~~~~~~~~~
-=== НЕ РЕДАКТИРУЙТЕ ЭТОТ ФАЙЛ! ===-

Путь: ...\1984 - Make It Big [465576 2]

1 -=- 01 - Wake Me Up Before You Go-Go.flac -=- CDDA (100%)
2 -=- 02 - Everything She Wants.flac -=- CDDA (100%)
3 -=- 03 - Heartbeat.flac -=- CDDA (99%)
4 -=- 04 - Like a Baby.flac -=- CDDA (100%)
5 -=- 05 - Freedom.flac -=- CDDA (100%)
6 -=- 06 - If You Were There.flac -=- CDDA (100%)
7 -=- 07 - Credit Card Baby.flac -=- CDDA (100%)
8 -=- 08 - Careless Whisper.flac -=- CDDA (100%)

Сводка 99,88% CDDA

39692740

 
Последнее редактирование модератором:

sergych

Ёшкин кот
VIP
Сообщения
2,236
Реакции
8,407
1986 - Wham! - The Final

1986 - Wham! - The Final




Исполнитель/Artist: Wham!
Альбом/Album: The Final
Год/Year: 1986
Жанр/Genre: New Wave, synthpop, post-disco, blue-eyed soul
Страна/Country: Европа
Рекорд-лейбл/Record label: EPIC / SONY
Номер в каталоге/Catalogue #: CDEPC 88681 / S0108868110-0101
Формат/Format: Free Lossless Audio Codec (*.flac)
Качество/Quality: Lossless
Тип рипа/RIP Type: image+.cue
Продолжительность/Length: 01:11:01
Источник/Source: Собственный рип
Размер/Size: 533.8 MB

Сканы в комплекте

01. Wham Rap! (Enjoy What You Do?) [0:06:41.72]
02. Young Guns (Go for It!) [0:05:11.50]
03. Bad Boys [0:03:19.55]
04. Club Tropicana [0:04:28.33]
05. Wake Me Up Before You Go-Go [0:03:50.50]
06. Careless Whisper [0:05:03.17]
07. Freedom [0:05:20.10]
08. Last Christmas (Pudding mix) [0:06:45.63]
09. Everything She Wants (remix) [0:06:29.55]
10. I'm Your Man [0:04:03.55]
11. A Different Corner [0:03:58.20]
12. Battlestations [0:05:30.35]
13. Where Did Your Heart Go? [0:05:42.50]
14. The Edge of Heaven [0:04:34.65]
Exact Audio Copy V1.0 beta 3 from 29. August 2011

EAC extraction logfile from 15. November 2013, 20:02

Wham! / The Final

Used drive : ATAPI iHAS124 D Adapter: 0 ID: 2

Read mode : Secure
Utilize accurate stream : Yes
Defeat audio cache : Yes
Make use of C2 pointers : No

Read offset correction : 6
Overread into Lead-In and Lead-Out : No
Fill up missing offset samples with silence : Yes
Delete leading and trailing silent blocks : No
Null samples used in CRC calculations : Yes
Used interface : Installed external ASPI interface

Used output format : User Defined Encoder
Selected bitrate : 1024 kBit/s
Quality : High
Add ID3 tag : No
Command line compressor : C:\Program Files (x86)\Exact Audio Copy\Flac\flac.exe
Additional command line options : -6 -V -T "ARTIST=%artist%" -T "TITLE=%title%" -T "ALBUM=%albumtitle%" -T "DATE=%year%" -T "TRACKNUMBER=%tracknr%" -T "GENRE=%genre%" -T "COMMENT=%comment%" -T "BAND=%albuminterpret%" -T "COMPOSER=%composer%" %haslyrics%--tag-from-file=LYRICS="%lyricsfile%"%haslyrics% -T "DISCNUMBER=%cdnumber%" -T "TOTALDISCS=%totalcds%" -T "TOTALTRACKS=%numtracks%" %hascover%--picture="%coverfile%"%hascover% %source% -o %dest%


TOC of the extracted CD

Track | Start | Length | Start sector | End sector
---------------------------------------------------------
1 | 0:00.00 | 6:41.72 | 0 | 30146
2 | 6:41.72 | 5:11.50 | 30147 | 53521
3 | 11:53.47 | 3:19.55 | 53522 | 68501
4 | 15:13.27 | 4:28.33 | 68502 | 88634
5 | 19:41.60 | 3:50.50 | 88635 | 105934
6 | 23:32.35 | 5:03.17 | 105935 | 128676
7 | 28:35.52 | 5:20.10 | 128677 | 152686
8 | 33:55.62 | 6:45.63 | 152687 | 183124
9 | 40:41.50 | 6:29.55 | 183125 | 212354
10 | 47:11.30 | 4:03.55 | 212355 | 230634
11 | 51:15.10 | 3:58.20 | 230635 | 248504
12 | 55:13.30 | 5:30.35 | 248505 | 273289
13 | 60:43.65 | 5:42.50 | 273290 | 298989
14 | 66:26.40 | 4:34.65 | 298990 | 319604


Range status and errors

Selected range

Filename C:\mm\Wham!\1986 - The Final [CD 88681]\Wham! - The Final.wav

Peak level 100.0 %
Extraction speed 10.3 X
Range quality 100.0 %
Test CRC AD67AF9B
Copy CRC AD67AF9B
Copy OK

No errors occurred


AccurateRip summary

Track 1 accurately ripped (confidence 13) [7E9DBFFC] (AR v2)
Track 2 accurately ripped (confidence 13) [A1E7E612] (AR v2)
Track 3 accurately ripped (confidence 13) [B8A8B2AF] (AR v2)
Track 4 accurately ripped (confidence 13) [7F40A670] (AR v2)
Track 5 accurately ripped (confidence 13) [44907338] (AR v2)
Track 6 accurately ripped (confidence 13) [0709FF1C] (AR v2)
Track 7 accurately ripped (confidence 13) [7C580FBB] (AR v2)
Track 8 accurately ripped (confidence 14) [F9CAF3EF] (AR v2)
Track 9 accurately ripped (confidence 13) [16F203CA] (AR v2)
Track 10 accurately ripped (confidence 13) [EE6FE191] (AR v2)
Track 11 accurately ripped (confidence 13) [AD03DDC3] (AR v2)
Track 12 accurately ripped (confidence 13) [B7DD669D] (AR v2)
Track 13 accurately ripped (confidence 12) [423278B6] (AR v2)
Track 14 accurately ripped (confidence 12) [6E7EDCBA] (AR v2)

All tracks accurately ripped

End of status report
PERFORMER: auCDtect Task Manager, ver. 1.6.0 RC1 build 1.6.0.1
Copyright (c) 2008-2010 y-soft. All rights reserved


ANALYZER: auCDtect: CD records authenticity detector, version 0.8.2
Copyright (c) 2004 Oleg Berngardt. All rights reserved.
Copyright (c) 2004 Alexander Djourik. All rights reserved.

FILE: Wham! - The Final.flac
Size: 487370189 Hash: C0E8A24398CE389391A12C2BF3333AD5 Accuracy: -m0
Conclusion: MPEG 95%
Signature: B1E7C7271391A7B68552C48BA487CEBCD8E3243F

 
Последнее редактирование модератором:

aheron

Гуру
VIP
Сообщения
15,712
Реакции
18,823
George Michael - Ladies & Gentlemen - The Best Of George Michael [2CD] (1998)





Performer: George Michael
Album: Ladies & Gentlemen - The Best Of George Michael
Including: 2 × CD, Compilation
Label: Epic/Sony Music. Made in UK.
Catalog #: 491705 2
Style: Ballad, Pop Rock, Synth-pop
Year: 1998
Format: FLAC (image + .cue)
Bitrate: lossless
Covers: in archive
Amount of tracks: 29
Size ZIP: ~ 1,3 gb

CD1 - For The Heart
--------------------------------
01. George Michael - Jesus To A Child [6:52]
02. George Michael - Father Figure [5:41]
03. George Michael - Careless Whisper [5:00]
04. George Michael - Don't Let The Sun Go Down On Me [5:49]
05. George Michael - You Have Been Loved [5:30]
06. George Michael - Kissing A Fool [4:35]
07. George Michael - I Can't Make You Love Me [5:22]
08. George Michael - Heal The Pain [4:48]
09. George Michael - A Moment With You [5:43]
10. George Michael - Desafinado [3:21]
11. George Michael - Cowboys And Angels [7:15]
12. George Michael - Praying For Time [4:44]
13. George Michael - One More Try [5:54]
14. George Michael - A Different Corner [4:05]
--------------------------
Total time: [01:14:37]

CD2 - For The Feet
-----------------------------
01. George Michael - Outside [4:43]
02. George Michael - As (With Mary J. Blige) [4:42]
03. George Michael - Fastlove [5:27]
04. George Michael - Too Funky [3:45]
05. George Michael - Freedom 90 [6:28]
06. George Michael - Star People 97 [5:37]
07. George Michael - Killer - Papa Was A Rollin' Stone [4:15]
08. George Michael - I Want Your Sex (Part II) [4:36]
09. George Michael - The Strangest Thing 97 [4:34]
10. George Michael - Fantasy [5:02]
11. George Michael - Spinning The Wheel [6:09]
12. George Michael - Waiting For That Day [4:50]
13. George Michael - I Knew You Were Waiting (For Me) (With Aretha Franklin) [3:58]
14. George Michael - Faith [4:14]
15. George Michael - Somebody To Love (With Queen) [5:19]
--------------------------
Total time: [01:13:40]

Notes:
=====================
This collection is dedicated in its entirety to my mother, Lesley.

℗ Sony Music Entertainment (UK) Ltd. 1984 (CD1-3), 1986 (CD1-14), 1987 (CD1-2, 6,13, CD2-8,14), 1990 (CD1-8,11,12, CD2-5,10,12), 1991 (CD1-4), 1992 (CD2-4), 1993 (CD2-7), 1998 (CD1-9, CD2-1,2) ℗ Robobuild Ltd. by arrangement with Virgin Records , 1996 (CD1-1,5,10 CD2-3,11) 1997 (CD1-7,CD2-6,9) ℗ Arista Records Inc. 1986 (CD2-13). ℗ QM Productions Ltd. under license to Sony Music Entertainment (UK)Ltd. 1993 (CD2-15). This compilation: ℗ 1998 Sony Music Entertainment (UK) Ltd. © 1998 Sony Music Entertainment (UK) Ltd.
Distribution; Sony Music.
Original sound recording made by Sony Music Entertainment (UK) Ltd. The copyright in this sound recording is owned by Sony Music Entertainment (UK) Ltd. - this applies to CD1 tracks: 2, 3, 4, 6, 8, 9, 11, 12, 13, 14 and CD2 tracks: 1, 2, 4, 5, 7, 8, 10, 12, 14.
Exact Audio Copy V1.0 beta 3 from 29. August 2011

EAC extraction logfile from 15. January 2013, 23:15

George Michael / Ladies & Gentlemen - The Best Of... (For The Heart - CD1)

Used drive : Optiarc DVD RW AD-5280S Adapter: 2 ID: 1

Read mode : Secure
Utilize accurate stream : Yes
Defeat audio cache : Yes
Make use of C2 pointers : No

Read offset correction : 48
Overread into Lead-In and Lead-Out : No
Fill up missing offset samples with silence : Yes
Delete leading and trailing silent blocks : No
Null samples used in CRC calculations : Yes
Used interface : Installed external ASPI interface

Used output format : Internal WAV Routines
Sample format : 44.100 Hz; 16 Bit; Stereo


TOC of the extracted CD

Track | Start | Length | Start sector | End sector
---------------------------------------------------------
1 | 0:00.00 | 6:51.55 | 0 | 30879
2 | 6:51.55 | 5:41.27 | 30880 | 56481
3 | 12:33.07 | 5:00.08 | 56482 | 78989
4 | 17:33.15 | 5:48.50 | 78990 | 105139
5 | 23:21.65 | 5:29.62 | 105140 | 129876
6 | 28:51.52 | 4:35.25 | 129877 | 150526
7 | 33:27.02 | 5:21.70 | 150527 | 174671
8 | 38:48.72 | 4:47.40 | 174672 | 196236
9 | 43:36.37 | 5:42.50 | 196237 | 221936
10 | 49:19.12 | 3:20.63 | 221937 | 236999
11 | 52:40.00 | 7:14.65 | 237000 | 269614
12 | 59:54.65 | 4:44.05 | 269615 | 290919
13 | 64:38.70 | 5:53.65 | 290920 | 317459
14 | 70:32.60 | 4:04.42 | 317460 | 335801


Range status and errors

Selected range

Filename C:\rip-flacmusic.ru\George Michael - Ladies & Gentlemen - The Best Of... (For The Heart - CD1).wav

Peak level 100.0 %
Extraction speed 4.6 X
Range quality 99.9 %
Test CRC D4A21D5E
Copy CRC D4A21D5E
Copy OK

No errors occurred


AccurateRip summary

Track 1 accurately ripped (confidence 12) [A97943E9] (AR v2)
Track 2 accurately ripped (confidence 12) [4828D71F] (AR v2)
Track 3 accurately ripped (confidence 11) [1BE282FA] (AR v2)
Track 4 accurately ripped (confidence 13) [5ED6F787] (AR v2)
Track 5 accurately ripped (confidence 12) [1B1867FA] (AR v2)
Track 6 accurately ripped (confidence 11) [3FC3664E] (AR v2)
Track 7 accurately ripped (confidence 13) [57E31B61] (AR v2)
Track 8 accurately ripped (confidence 12) [7912D515] (AR v2)
Track 9 accurately ripped (confidence 13) [A922ADC4] (AR v2)
Track 10 accurately ripped (confidence 13) [F563C427] (AR v2)
Track 11 accurately ripped (confidence 12) [30AE20A0] (AR v2)
Track 12 accurately ripped (confidence 11) [3C078296] (AR v2)
Track 13 accurately ripped (confidence 12) [771CDD59] (AR v2)
Track 14 accurately ripped (confidence 13) [B3B944F8] (AR v2)

All tracks accurately ripped

End of status report

==== Log checksum 8CBA5D7BE1DCDA154AABC7358331080557FC6C954485B84926A70E0084175681 ====

/////////////////////////////////////////////////////////////////////////////////////////////////////////////

Exact Audio Copy V1.0 beta 3 from 29. August 2011

EAC extraction logfile from 15. January 2013, 22:36

George Michael / Ladies & Gentlemen - The Best Of... (For The Feet - CD2)

Used drive : Optiarc DVD RW AD-5280S Adapter: 2 ID: 1

Read mode : Secure
Utilize accurate stream : Yes
Defeat audio cache : Yes
Make use of C2 pointers : No

Read offset correction : 48
Overread into Lead-In and Lead-Out : No
Fill up missing offset samples with silence : Yes
Delete leading and trailing silent blocks : No
Null samples used in CRC calculations : Yes
Used interface : Installed external ASPI interface

Used output format : Internal WAV Routines
Sample format : 44.100 Hz; 16 Bit; Stereo


TOC of the extracted CD

Track | Start | Length | Start sector | End sector
---------------------------------------------------------
1 | 0:00.00 | 4:43.32 | 0 | 21256
2 | 4:43.32 | 4:42.03 | 21257 | 42409
3 | 9:25.35 | 5:27.17 | 42410 | 66951
4 | 14:52.52 | 3:44.70 | 66952 | 83821
5 | 18:37.47 | 6:28.30 | 83822 | 112951
6 | 25:06.02 | 5:36.45 | 112952 | 138196
7 | 30:42.47 | 4:15.18 | 138197 | 157339
8 | 34:57.65 | 4:36.37 | 157340 | 178076
9 | 39:34.27 | 4:34.13 | 178077 | 198639
10 | 44:08.40 | 5:01.47 | 198640 | 221261
11 | 49:10.12 | 6:08.73 | 221262 | 248934
12 | 55:19.10 | 4:50.05 | 248935 | 270689
13 | 60:09.15 | 3:58.00 | 270690 | 288539
14 | 64:07.15 | 4:14.17 | 288540 | 307606
15 | 68:21.32 | 5:18.68 | 307607 | 331524
16 | 76:12.25 | 0:06.50 | 342925 | 343424


Range status and errors

Selected range

Filename C:\rip-flacmusic.ru\George Michael - Ladies & Gentlemen - The Best Of... (For The Feet - CD2).wav

Peak level 100.0 %
Extraction speed 4.7 X
Range quality 100.0 %
Test CRC 553FC451
Copy CRC 553FC451
Copy OK

No errors occurred


AccurateRip summary

Track 1 accurately ripped (confidence 3) [60C3FDA6] (AR v2)
Track 2 accurately ripped (confidence 3) [0283BE01] (AR v2)
Track 3 accurately ripped (confidence 3) [22592D05] (AR v2)
Track 4 accurately ripped (confidence 3) [061FBC0E] (AR v2)
Track 5 accurately ripped (confidence 3) [1121AAA7] (AR v2)
Track 6 accurately ripped (confidence 3) [A874C301] (AR v2)
Track 7 accurately ripped (confidence 3) [804CBC9A] (AR v2)
Track 8 accurately ripped (confidence 3) [368091BD] (AR v2)
Track 9 accurately ripped (confidence 3) [415BA5DA] (AR v2)
Track 10 accurately ripped (confidence 3) [D9770879] (AR v2)
Track 11 accurately ripped (confidence 3) [7A2D604E] (AR v2)
Track 12 accurately ripped (confidence 3) [779B164C] (AR v2)
Track 13 accurately ripped (confidence 3) [8261CD99] (AR v2)
Track 14 accurately ripped (confidence 3) [E8550F92] (AR v2)
Track 15 accurately ripped (confidence 3) [2328FE20] (AR v2)

All tracks accurately ripped

End of status report

==== Log checksum B32E3C43401F0E7427F9027DBE64651D3C231071354C3CD460D4E27E8F011401 ====
-----------------------

DON'T MODIFY THIS FILE

-----------------------

PERFORMER: auCDtect Task Manager, ver. 1.6.0 RC1 build 1.6.0.1
Copyright (c) 2008-2010 y-soft. All rights reserved


ANALYZER: auCDtect: CD records authenticity detector, version 0.8.2
Copyright (c) 2004 Oleg Berngardt. All rights reserved.
Copyright (c) 2004 Alexander Djourik. All rights reserved.


FILE: George Michael - Ladies & Gentlemen - The Best Of... (For The Heart - CD1).flac
Size: 505678053 Hash: 6B8B2973885A3E5421DC9F18EC646567 Accuracy: -m0
Conclusion: CDDA 100%
Signature: D58E6713EF27B9C552C79983E4386624EEF08A15

/////////////////////////////////////////////////////////////////////////

-----------------------

DON'T MODIFY THIS FILE

-----------------------

PERFORMER: auCDtect Task Manager, ver. 1.6.0 RC1 build 1.6.0.1
Copyright (c) 2008-2010 y-soft. All rights reserved


ANALYZER: auCDtect: CD records authenticity detector, version 0.8.2
Copyright (c) 2004 Oleg Berngardt. All rights reserved.
Copyright (c) 2004 Alexander Djourik. All rights reserved.


FILE: George Michael - Ladies & Gentlemen - The Best Of... (For The Feet - CD2).flac
Size: 539461838 Hash: CF5DA1601778ABF23D54FDB0B1AE7A3D Accuracy: -m0
Conclusion: CDDA 100%
Signature: 0A48EE4E79CA6897D10401BAC56987AB5B51DABA
foobar2000 1.3 / Dynamic Range Meter 1.1.1
log date: 2014-03-29 18:12:10

--------------------------------------------------------------------------------
Analyzed: George Michael / Ladies & Gentlemen - The Best Of... (For The Heart - CD1)
--------------------------------------------------------------------------------

DR Peak RMS Duration Track
--------------------------------------------------------------------------------
DR11 -0.03 dB -13.34 dB 6:52 01-Jesus To A Child
DR11 -0.16 dB -14.46 dB 5:41 02-Father Figure
DR10 -0.03 dB -12.45 dB 5:00 03-Careless Whisper
DR8 -0.26 dB -11.97 dB 5:49 04-Don't Let The Sun Go Down On Me
DR12 -1.83 dB -15.84 dB 5:30 05-You Have Been Loved
DR12 0.00 dB -15.85 dB 4:35 06-Kissing A Fool
DR10 -0.43 dB -14.20 dB 5:22 07-I Can't Make You Love Me
DR11 -1.01 dB -13.25 dB 4:48 08-Heal The Pain
DR11 -0.43 dB -13.49 dB 5:43 09-A Moment With You
DR11 -0.60 dB -13.06 dB 3:21 10-Desafinado
DR11 -0.43 dB -13.35 dB 7:15 11-Cowboys And Angels
DR11 -0.26 dB -12.44 dB 4:44 12-Praying For Time
DR11 -0.25 dB -12.88 dB 5:54 13-One More Try
DR11 -0.44 dB -14.54 dB 4:05 14-A Different Corner
--------------------------------------------------------------------------------

Number of tracks: 14
Official DR value: DR11

Samplerate: 44100 Hz
Channels: 2
Bits per sample: 16
Bitrate: 904 kbps
Codec: FLAC
================================================================================

/////////////////////////////////////////////////////////////////////////

foobar2000 1.3 / Dynamic Range Meter 1.1.1
log date: 2014-03-29 18:12:45

--------------------------------------------------------------------------------
Analyzed: George Michael / Ladies & Gentlemen - The Best Of... (For The Feet - CD2)
--------------------------------------------------------------------------------

DR Peak RMS Duration Track
--------------------------------------------------------------------------------
DR9 -0.11 dB -11.24 dB 4:43 01-Outside
DR9 -1.26 dB -12.38 dB 4:42 02-As (With Mary J. Blige)
DR10 -0.43 dB -11.78 dB 5:27 03-Fastlove
DR10 -0.43 dB -11.62 dB 3:45 04-Too Funky
DR10 -0.49 dB -11.84 dB 6:28 05-Freedom 90
DR9 -0.43 dB -10.66 dB 5:37 06-Star People 97
DR10 0.00 dB -11.89 dB 4:15 07-Killer - Papa Was A Rollin' Stone
DR11 -0.25 dB -13.34 dB 4:36 08-I Want Your Sex (Part II)
DR10 -1.03 dB -12.13 dB 4:34 09-The Strangest Thing 97
DR10 -0.12 dB -11.30 dB 5:02 10-Fantasy
DR11 -1.03 dB -13.45 dB 6:09 11-Spinning The Wheel
DR10 -1.03 dB -12.25 dB 4:50 12-Waiting For That Day
DR7 -0.62 dB -9.35 dB 3:58 13-I Knew You Were Waiting (For Me) (With Aretha Franklin)
DR12 0.00 dB -14.92 dB 4:14 14-Faith
DR9 -0.26 dB -10.97 dB 5:19 15-Somebody To Love (With Queen)
--------------------------------------------------------------------------------

Number of tracks: 15
Official DR value: DR10

Samplerate: 44100 Hz
Channels: 2
Bits per sample: 16
Bitrate: 976 kbps
Codec: FLAC
================================================================================

George Michael - Outside

 
Последнее редактирование:

sergych

Ёшкин кот
VIP
Сообщения
2,236
Реакции
8,407
1993 - George Michael and Queen with Lisa Stansfield - Five Live

1993 - George Michael and Queen with Lisa Stansfield - Five Live




Исполнитель/Artist: George Michael, Queen, Lisa Stansfield
Альбом/Album: Five Live
Год/Year: 1993
Жанр/Genre: Pop rock, soft rock
Страна/Country: Соединённые Штаты
Рекорд-лейбл/Record label: Hollywood Records
Номер в каталоге/Catalogue #: HR-61479-2
Формат/Format: Free Lossless Audio Codec (*.flac)
Качество/Quality: Lossless
Тип рипа/RIP Type: image+.cue
Продолжительность/Length: 00:28:50
Источник/Source: Собственный рип
Размер/Size: 213.1 MB

Сканы в комплекте

01. George Michael and Queen / Somebody to Love [0:05:17.72]
02. George Michael / Killer [0:05:57.55]
03. George Michael / Papa Was a Rollin' Stone [0:05:24.65]
04. These Are the Days of Our Lives [0:04:43.70]
05. George Michael / Calling You [0:06:17.70]
06. Queen / Dear Friends [0:01:08.15]
Exact Audio Copy V1.0 beta 3 from 29. August 2011

EAC extraction logfile from 11. April 2014, 12:17

George Michael and Queen with Lisa Stansfield / Five Live

Used drive : HL-DT-STDVDRAM GH22NS50 Adapter: 3 ID: 0

Read mode : Secure
Utilize accurate stream : Yes
Defeat audio cache : Yes
Make use of C2 pointers : No

Read offset correction : 667
Overread into Lead-In and Lead-Out : No
Fill up missing offset samples with silence : Yes
Delete leading and trailing silent blocks : No
Null samples used in CRC calculations : Yes
Used interface : Installed external ASPI interface

Used output format : User Defined Encoder
Selected bitrate : 1024 kBit/s
Quality : High
Add ID3 tag : No
Command line compressor : C:\MMProgram\Exact Audio Copy\FLAC\FLAC.EXE
Additional command line options : -6 -V -T "ARTIST=%artist%" -T "TITLE=%title%" -T "ALBUM=%albumtitle%" -T "DATE=%year%" -T "TRACKNUMBER=%tracknr%" -T "GENRE=%genre%" -T "COMMENT=%comment%" -T "BAND=%albuminterpret%" -T "ALBUMARTIST=%albuminterpret%" -T "COMPOSER=%composer%" %haslyrics%--tag-from-file=LYRICS="%lyricsfile%"%haslyrics% -T "DISCNUMBER=%cdnumber%" -T "TOTALDISCS=%totalcds%" -T "TOTALTRACKS=%numtracks%" %hascover%--picture="%coverfile%"%hascover% %source% -o %dest%


TOC of the extracted CD

Track | Start | Length | Start sector | End sector
---------------------------------------------------------
1 | 0:00.00 | 5:17.72 | 0 | 23846
2 | 5:17.72 | 5:57.55 | 23847 | 50676
3 | 11:15.52 | 5:24.65 | 50677 | 75041
4 | 16:40.42 | 4:43.70 | 75042 | 96336
5 | 21:24.37 | 6:17.70 | 96337 | 124681
6 | 27:42.32 | 1:08.15 | 124682 | 129796


Range status and errors

Selected range

Filename D:\mm\George Michael\1993 - Five Live {& Queen with Lisa Stansfield} [HR-61479-2]\George Michael and Queen with Lisa Stansfield - Five Live.wav

Peak level 98.6 %
Extraction speed 1.7 X
Range quality 100.0 %
Test CRC 74B71511
Copy CRC 74B71511
Copy OK

No errors occurred


AccurateRip summary

Track 1 accurately ripped (confidence 12) [841855AF] (AR v2)
Track 2 accurately ripped (confidence 12) [CC53635D] (AR v2)
Track 3 accurately ripped (confidence 12) [64B17FE4] (AR v2)
Track 4 accurately ripped (confidence 12) [8B59B2F1] (AR v2)
Track 5 accurately ripped (confidence 12) [EE9BB57C] (AR v2)
Track 6 accurately ripped (confidence 12) [EB23E012] (AR v2)

All tracks accurately ripped

End of status report

==== Log checksum D8D144F806B7C50411D6FB6C514E757C1D31C01EC6689C2AEA5DF6A86F0E49FE ====
AUDIOCHECKER v2.0 beta (build 457) - by Dester - [email protected]
~~~~~~~~~~~~~~~~~~~~~~~~~~~~~~~~~~
-=== НЕ РЕДАКТИРУЙТЕ ЭТОТ ФАЙЛ! ===-

Путь: ...\1993 - Five Live {& Queen with Lisa Stansfield} [HR-61479-2]

1 -=- George Michael and Queen with Lisa Stansfield - Five Live.flac -=- MPEG (95%)

251292548
 
Последнее редактирование модератором:

aheron

Гуру
VIP
Сообщения
15,712
Реакции
18,823
Wham! - If You Were There - The Best Of Wham! (1997)





Performer: Wham!
Album: If You Were There - The Best Of Wham!
Label: Epic/Sony Music. Made in UK.
Catalog #: 489020 2
Style: Pop Rock, Synth-pop
Year: 1997
Format: FLAC (image + .cue)
Bitrate: lossless
Covers: in archive
Amount of tracks: 14
Size ZIP: ~ 576 mb

01. Wham! - If You Were There [3:43]
02. Wham! - I'm Your Man [4:06]
03. Wham! - Everything She Wants [6:29]
04. Wham! - Club Tropicana [4:31]
05. Wham! - Wake Me Up Before You Go-Go [3:51]
06. Wham! - Like A Baby [4:16]
07. Wham! - Freedom [5:20]
08. Wham! - The Edge Of Heaven [4:38]
09. Wham! - Wham Rap! (Enjoy What You Do) [6:47]
10. Wham! - Young Guns (Go For It) [3:41]
11. Wham! - Last Christmas [6:49]
12. Wham! - Where Did Your Heart Go? [5:43]
13. Wham! - Everything She Wants '97 [6:02]
14. Wham! - I'm Your Man '96 [4:32]
--------------------------
Total time: [01:10:29]

Notes:
=================
Design at Warsaw.

© 1997 Sony Music Entertainment (UK) Ltd.
Distribution Sony Music
Exact Audio Copy V1.0 beta 3 from 29. August 2011

EAC extraction logfile from 25. March 2013, 13:37

Wham! / If You Were There - The Best Of Wham!

Used drive : Optiarc DVD RW AD-5280S Adapter: 2 ID: 1

Read mode : Secure
Utilize accurate stream : Yes
Defeat audio cache : Yes
Make use of C2 pointers : No

Read offset correction : 48
Overread into Lead-In and Lead-Out : No
Fill up missing offset samples with silence : Yes
Delete leading and trailing silent blocks : No
Null samples used in CRC calculations : Yes
Used interface : Installed external ASPI interface

Used output format : Internal WAV Routines
Sample format : 44.100 Hz; 16 Bit; Stereo


TOC of the extracted CD

Track | Start | Length | Start sector | End sector
---------------------------------------------------------
1 | 0:00.00 | 3:43.35 | 0 | 16759
2 | 3:43.35 | 4:06.35 | 16760 | 35244
3 | 7:49.70 | 6:29.32 | 35245 | 64451
4 | 14:19.27 | 4:30.55 | 64452 | 84756
5 | 18:50.07 | 3:51.33 | 84757 | 102114
6 | 22:41.40 | 4:16.02 | 102115 | 121316
7 | 26:57.42 | 5:20.20 | 121317 | 145336
8 | 32:17.62 | 4:37.45 | 145337 | 166156
9 | 36:55.32 | 6:46.68 | 166157 | 196674
10 | 43:42.25 | 3:41.32 | 196675 | 213281
11 | 47:23.57 | 6:48.43 | 213282 | 243924
12 | 54:12.25 | 5:42.45 | 243925 | 269619
13 | 59:54.70 | 6:01.70 | 269620 | 296764
14 | 65:56.65 | 4:32.10 | 296765 | 317174


Range status and errors

Selected range

Filename C:\rip-flacmusic.ru\Wham! - If You Were There - The Best Of Wham!.wav

Peak level 98.6 %
Extraction speed 4.5 X
Range quality 99.9 %
Test CRC 7650FFD5
Copy CRC 7650FFD5
Copy OK

No errors occurred


AccurateRip summary

Track 1 accurately ripped (confidence 11) [C1FC8F23] (AR v2)
Track 2 accurately ripped (confidence 11) [F9283824] (AR v2)
Track 3 accurately ripped (confidence 11) [0F91A571] (AR v2)
Track 4 accurately ripped (confidence 11) [9C8D7C6F] (AR v2)
Track 5 accurately ripped (confidence 11) [F79D6B4D] (AR v2)
Track 6 accurately ripped (confidence 11) [A5F8227F] (AR v2)
Track 7 accurately ripped (confidence 11) [DAE5E6AE] (AR v2)
Track 8 accurately ripped (confidence 11) [237FEAE0] (AR v2)
Track 9 accurately ripped (confidence 11) [EFF3CF5E] (AR v2)
Track 10 accurately ripped (confidence 11) [28D0BABA] (AR v2)
Track 11 accurately ripped (confidence 11) [8BA401BD] (AR v2)
Track 12 accurately ripped (confidence 10) [0CD80BF9] (AR v2)
Track 13 accurately ripped (confidence 11) [D6FD55D4] (AR v2)
Track 14 accurately ripped (confidence 11) [80460A80] (AR v2)

All tracks accurately ripped

End of status report

==== Log checksum A347312AF87F1BDEB24E4F107DCE9455B9EA7197A0C1C9FF9D7A1C1D56D87BB0 ====
-----------------------

DON'T MODIFY THIS FILE

-----------------------

PERFORMER: auCDtect Task Manager, ver. 1.6.0 RC1 build 1.6.0.1
Copyright (c) 2008-2010 y-soft. All rights reserved


ANALYZER: auCDtect: CD records authenticity detector, version 0.8.2
Copyright (c) 2004 Oleg Berngardt. All rights reserved.
Copyright (c) 2004 Alexander Djourik. All rights reserved.


FILE: Wham! - If You Were There - The Best Of Wham!.flac
Size: 521877608 Hash: 0D396B65F84A2EFC2A0E016BA30A0DC3 Accuracy: -m0
Conclusion: CDDA 100%
Signature: C213BCCEB6DA4903792A36B8F14B72CFB2FEF166
foobar2000 1.3.2 / Dynamic Range Meter 1.1.1
log date: 2014-05-03 14:51:49

--------------------------------------------------------------------------------
Analyzed: Wham! / If You Were There - The Best Of Wham!
--------------------------------------------------------------------------------

DR Peak RMS Duration Track
--------------------------------------------------------------------------------
DR9 -0.43 dB -10.97 dB 3:43 01-If You Were There
DR7 -0.43 dB -9.37 dB 4:06 02-I'm Your Man
DR9 -0.43 dB -11.79 dB 6:29 03-Everything She Wants
DR10 -0.26 dB -12.35 dB 4:31 04-Club Tropicana
DR8 -0.43 dB -9.62 dB 3:51 05-Wake Me Up Before You Go-Go
DR10 -0.12 dB -12.65 dB 4:16 06-Like A Baby
DR7 -0.43 dB -8.66 dB 5:20 07-Freedom
DR8 -0.43 dB -9.78 dB 4:38 08-The Edge Of Heaven
DR9 -0.26 dB -10.67 dB 6:47 09-Wham Rap! (Enjoy What You Do)
DR9 -0.43 dB -10.43 dB 3:41 10-Young Guns (Go For It)
DR8 -0.26 dB -10.84 dB 6:49 11-Last Christmas
DR9 -0.26 dB -11.80 dB 5:43 12-Where Did Your Heart Go?
DR9 -0.43 dB -10.47 dB 6:02 13-Everything She Wants '97
DR9 -0.43 dB -11.84 dB 4:32 14-I'm Your Man '96
--------------------------------------------------------------------------------

Number of tracks: 14
Official DR value: DR9

Samplerate: 44100 Hz
Channels: 2
Bits per sample: 16
Bitrate: 987 kbps
Codec: FLAC
================================================================================

Wham! - Club Tropicana

 
Последнее редактирование:

aheron

Гуру
VIP
Сообщения
15,712
Реакции
18,823
George Michae - Older (1996) [Japan K2HD Mastering 2014]





Performer: George Michael
Album: Older
Including: HDCD, Limited Edition, Numbered, Reissue, Remastered
Label: Robobuild/Virgin Records/Sony Music. Made in Japan.
Catalog #: 88875022562
Style: Pop, Rock, Jazz, Electronic
Year: 1996 (K2HD Mastering 2014)
Format: FLAC (image + .cue)
Bitrate: lossless
Covers: in archive
Amount of tracks: 11
Size ZIP: ~ 784 mb

01. George Michael - Jesus To A Child [6:51]
02. George Michael - Fastlove [5:25]
03. George Michael - Older [5:33]
04. George Michael - Spinning The Wheel [6:22]
05. George Michael - It Doesn't Really Matter [4:50]
06. George Michael - The Strangest Thing [6:02]
07. George Michael - To Be Forgiven [5:21]
08. George Michael - Move On [4:45]
09. George Michael - Star People [5:17]
10. George Michael - You Have Been Loved [5:31]
11. George Michael - Free [3:01]
--------------------------
Total time: [58:57]


Notes:
=====================
Manufactured in Japan & CD released in Hong Kong by Sony Music.
George Michael's 1996 classic album.
Newest Japan JVC K2-HD Technology Mastering version.
For better sound reproduction.
Limited Numbered Edition to 1,000.
℗+© 1996 Robobuild Ltd., licensed exclusively to Virgin Records Ltd.
Mastered at Metropolis Studios, London.
Exact Audio Copy V1.0 beta 2 from 29. April 2011

EAC extraction logfile from 24. December 2014, 17:51

George Michael / Older [2014 Sony K2HD Mastering]

Used drive : HL-DT-STDVDRAM GH60N Adapter: 0 ID: 1

Read mode : Secure
Utilize accurate stream : Yes
Defeat audio cache : Yes
Make use of C2 pointers : No

Read offset correction : 667
Overread into Lead-In and Lead-Out : No
Fill up missing offset samples with silence : Yes
Delete leading and trailing silent blocks : No
Null samples used in CRC calculations : Yes
Used interface : Native Win32 interface for Win NT & 2000

Used output format : User Defined Encoder
Selected bitrate : 1024 kBit/s
Quality : High
Add ID3 tag : No
Command line compressor : C:\Program Files (x86)\Exact Audio Copy\Flac\flac.exe
Additional command line options : -V -5 -T "artist=%albumartist%" -T "title=%title%" -T "album=%albumtitle%" -T "date=%year%" -T "genre=%genre%" -T "tracknumber=%tracknr%" %source%


TOC of the extracted CD

Track | Start | Length | Start sector | End sector
---------------------------------------------------------
1 | 0:00.00 | 6:51.11 | 0 | 30835
2 | 6:51.11 | 5:24.50 | 30836 | 55185
3 | 12:15.61 | 5:33.08 | 55186 | 80168
4 | 17:48.69 | 6:21.47 | 80169 | 108790
5 | 24:10.41 | 4:50.10 | 108791 | 130550
6 | 29:00.51 | 6:01.48 | 130551 | 157673
7 | 35:02.24 | 5:21.31 | 157674 | 181779
8 | 40:23.55 | 4:45.21 | 181780 | 203175
9 | 45:09.01 | 5:16.45 | 203176 | 226920
10 | 50:25.46 | 5:30.60 | 226921 | 251730
11 | 55:56.31 | 3:01.06 | 251731 | 265311


Range status and errors

Selected range

Filename C:\EAC\George Michael - (1996) Older [2014 Sony K2HD Mastering]\George Michael - Older [2014 Sony K2HD Mastering].wav

Peak level 96.6 %
Extraction speed 2.1 X
Range quality 99.9 %
Test CRC 918A253B
Copy CRC 918A253B
Copy OK

No errors occurred


AccurateRip summary

Track 1 cannot be verified as accurate (confidence 9) [5BA4718B], AccurateRip returned [ED316911] (AR v2)
Track 2 cannot be verified as accurate (confidence 9) [1BC39791], AccurateRip returned [8973D676] (AR v2)
Track 3 cannot be verified as accurate (confidence 9) [CBB02118], AccurateRip returned [CD75B179] (AR v2)
Track 4 cannot be verified as accurate (confidence 9) [949CA2AF], AccurateRip returned [A2229547] (AR v2)
Track 5 cannot be verified as accurate (confidence 9) [CAC1CDD7], AccurateRip returned [BFFE40EB] (AR v2)
Track 6 cannot be verified as accurate (confidence 9) [1D52049D], AccurateRip returned [44A4F658] (AR v2)
Track 7 cannot be verified as accurate (confidence 9) [1BD89923], AccurateRip returned [6EC51671] (AR v2)
Track 8 cannot be verified as accurate (confidence 9) [74FA9285], AccurateRip returned [D6D37CDC] (AR v2)
Track 9 cannot be verified as accurate (confidence 9) [A75C0D94], AccurateRip returned [A56D03B3] (AR v2)
Track 10 cannot be verified as accurate (confidence 9) [61C50375], AccurateRip returned [2884CB18] (AR v2)
Track 11 cannot be verified as accurate (confidence 9) [D4186B65], AccurateRip returned [41225A50] (AR v2)

No tracks could be verified as accurate
You may have a different pressing from the one(s) in the database

End of status report

==== Log checksum 592C6729F454B1B0DE9D828F49F21729624CF92B6E3FFAF126A26923F2B82445 ====
-----------------------

DON'T MODIFY THIS FILE

-----------------------

PERFORMER: auCDtect Task Manager, ver. 1.6.0 RC1 build 1.6.0.1
Copyright (c) 2008-2010 y-soft. All rights reserved


ANALYZER: auCDtect: CD records authenticity detector, version 0.8.2
Copyright (c) 2004 Oleg Berngardt. All rights reserved.
Copyright (c) 2004 Alexander Djourik. All rights reserved.


FILE: George Michael - Older [2014 Sony K2HD Mastering].flac
Size: 418596382 Hash: 2D9D194F53066D9CEF503E4298316340 Accuracy: -m0
Conclusion: MPEG 95%
Signature: A60E8D0754323204D840E48FE187802631E56D80
foobar2000 1.3.6 / Dynamic Range Meter 1.1.1
log date: 2014-12-26 17:40:48

--------------------------------------------------------------------------------
Analyzed: George Michael / Older [2014 Sony K2HD Mastering]
--------------------------------------------------------------------------------

DR Peak RMS Duration Track
--------------------------------------------------------------------------------
DR11 -0.30 dB -12.91 dB 6:51 01-Jesus To A Child
DR10 -0.30 dB -10.97 dB 5:25 02-Fastlove
DR10 -0.30 dB -11.85 dB 5:33 03-Older
DR9 -0.30 dB -11.16 dB 6:22 04-Spinning The Wheel
DR10 -0.30 dB -12.07 dB 4:50 05-It Doesn't Really Matter
DR10 -0.30 dB -11.05 dB 6:02 06-The Strangest Thing
DR10 -0.30 dB -12.03 dB 5:21 07-To Be Forgiven
DR10 -0.30 dB -12.20 dB 4:45 08-Move On
DR9 -0.30 dB -10.12 dB 5:17 09-Star People
DR12 -0.30 dB -13.41 dB 5:31 10-You Have Been Loved
DR9 -0.30 dB -12.05 dB 3:01 11-Free
--------------------------------------------------------------------------------

Number of tracks: 11
Official DR value: DR10

Samplerate: 44100 Hz
Channels: 2
Bits per sample: 16
Bitrate: 946 kbps
Codec: FLAC
================================================================================
Older is the third studio album from George Michael, released in Europe on 13 May 1996 through Virgin Records and one day later in the United States through the then-new DreamWorks Records. Older was the very first album released by DreamWorks Records. It was his first album since 1990's Listen Without Prejudice, Vol. 1 – the five-and-a-half-year gap was due to the controversial legal battle that Michael experienced with his record company. Michael dedicated three years straight in the recording of Older, and the album found him exploring new musical territories in a more serious fashion compared to his previous work.
George Michael - Fastlove

 
Последнее редактирование:
Сверху