aheron

Гуру
VIP
Сообщения
15,712
Реакции
18,823




Guns N’ Roses (рус. Ганз н Роузес, букв. с англ. — «стволы и розы») — американская глэм-метал группа, образовавшаяся в Лос-Анджелесе, штат Калифорния, в 1985 году
Группа завоевала всемирную популярность после выпуска компанией Geffen Records в 1987 году её первого полноформатного альбома «Appetite for Destruction» (по данным RIAA является самым коммерчески успешным дебютным альбомом за всю историю рок-н-ролла). Успех был закреплён мировым турне и двумя альбомами «Use Your Illusion I» и «Use Your Illusion II». Это одна из самых успешных рок-групп, общий тираж проданных записей которой оценивается в 150 миллионов экземпляров.
Вокалист Аксл Роуз (Axl Rose (настоящее имя William Bailey)) и его школьный друг гитарист Иззи Страдлин (Izzy Stradlin (настоящее имя Jeffrey Isbell)) приехали в Лос-Анджелес из города Лафайета в Индиане в начале 1980-х. Аксл участвовал в нескольких группах, включая Hollywood Rose, где вместе с ним играл Иззи, и L.A. Guns, участником которой был гитарист Трейси Ганз. В марте 1985 года Трейси Ганз и Аксл Роуз создали группу Guns N' Roses, составив название из своих имён. В банду из Hollywood Rose также пришел Иззи Страдлин, а из L.A. Guns — ударник Роб Гарднер (Rob Gardner) и басист Оле Байх (Ole Beich), которого впоследствии заменил Дафф МакКаган (Duff McKagan). Музыкальный стиль группы представлял из себя смесь рока, хард-рока, блюза, панка.
 
Последнее редактирование:

aheron

Гуру
VIP
Сообщения
15,712
Реакции
18,823
Guns N' Roses - Appetite For Destruction (1987)





Performer: Guns N' Roses
Album: Appetite For Destruction
Label: Geffen Records. Made in Germany.
Catalog #: GED 24148/GEFD 24148
Style: Hard Rock
Year: 1987 (Reissue 199?)
Format: FLAC (image + .cue)
Bitrate: lossless
Covers: in archive
Amount of tracks: 12
Size ZIP: ~ 439 mb

Exact Audio Copy V0.99 prebeta 4 from 23. January 2008

EAC extraction logfile from 9. June 2010, 12:16

Guns N' Roses / Appetite for Destruction (GED 24148)

Used drive : PIONEER DVD-RW DVR-105 Adapter: 0 ID: 1

Read mode : Secure
Utilize accurate stream : Yes
Defeat audio cache : Yes
Make use of C2 pointers : No

Read offset correction : 48
Overread into Lead-In and Lead-Out : Yes
Fill up missing offset samples with silence : Yes
Delete leading and trailing silent blocks : No
Null samples used in CRC calculations : Yes
Used interface : Installed external ASPI interface

Used output format : User Defined Encoder
Selected bitrate : 128 kBit/s
Quality : High
Add ID3 tag : No
Command line compressor : C:\Program Files\Exact Audio Copy\Flac\flac.exe
Additional command line options : -8 -V -T "ARTIST=%a" -T "TITLE=%t" -T "ALBUM=%g" -T "DATE=%y" -T "TRACKNUMBER=%n" -T "GENRE=%m" -T "COMMENT=EAC FLAC -8" %s


TOC of the extracted CD

Track | Start | Length | Start sector | End sector
---------------------------------------------------------
1 | 0:00.00 | 4:33.45 | 0 | 20519
2 | 4:33.45 | 3:22.68 | 20520 | 35737
3 | 7:56.38 | 4:28.37 | 35738 | 55874
4 | 12:25.00 | 4:23.65 | 55875 | 75664
5 | 16:48.65 | 3:48.68 | 75665 | 92832
6 | 20:37.58 | 6:46.22 | 92833 | 123304
7 | 27:24.05 | 3:39.70 | 123305 | 139799
8 | 31:04.00 | 3:51.48 | 139800 | 157172
9 | 34:55.48 | 5:56.30 | 157173 | 183902
10 | 40:52.03 | 3:17.15 | 183903 | 198692
11 | 44:09.18 | 3:26.27 | 198693 | 214169
12 | 47:35.45 | 6:13.15 | 214170 | 242159


Range status and errors

Selected range

Filename C:\Olaf der Weisse\Guns N' Roses . 1987 . Appetite for Destruction (GED 24148)\Guns N' Roses . 1987 . Appetite for Destruction (GED 24148).wav

Peak level 100.0 %
Range quality 100.0 %
Test CRC A222A797
Copy CRC A222A797
Copy OK

No errors occurred


AccurateRip summary

Track 1 accurately ripped (confidence 87) [E90C6C98]
Track 2 accurately ripped (confidence 84) [67D16D83]
Track 3 accurately ripped (confidence 83) [ED4BF2A9]
Track 4 accurately ripped (confidence 84) [1B40A13B]
Track 5 accurately ripped (confidence 82) [899755C0]
Track 6 accurately ripped (confidence 86) [438B11F4]
Track 7 accurately ripped (confidence 84) [9EE5994F]
Track 8 accurately ripped (confidence 82) [762B38BB]
Track 9 accurately ripped (confidence 84) [84843E86]
Track 10 accurately ripped (confidence 84) [9C664E5C]
Track 11 accurately ripped (confidence 83) [3126AF0D]
Track 12 accurately ripped (confidence 83) [96415780]

All tracks accurately ripped

End of status report
-----------------------

DON'T MODIFY THIS FILE

-----------------------

PERFORMER: auCDtect Task Manager, ver. 1.6.0 RC1 build 1.6.0.1
Copyright (c) 2008-2010 y-soft. All rights reserved


ANALYZER: auCDtect: CD records authenticity detector, version 0.8.2
Copyright (c) 2004 Oleg Berngardt. All rights reserved.
Copyright (c) 2004 Alexander Djourik. All rights reserved.


FILE: Guns N' Roses . 1987 . Appetite for Destruction (GED 24148).flac
Size: 403331620 Hash: 5C4C2D967D35469611B60B5AAD41C821 Accuracy: -m0
Conclusion: CDDA 100%
Signature: 50AE622E5D426570C3A1358B0656290567C72385
foobar2000 1.3.2 / Dynamic Range Meter 1.1.1
log date: 2014-07-20 00:03:18

--------------------------------------------------------------------------------
Analyzed: Guns N' Roses / Appetite for Destruction (GED 24148)
--------------------------------------------------------------------------------

DR Peak RMS Duration Track
--------------------------------------------------------------------------------
DR10 0.00 dB -12.68 dB 4:34 01-Welcome To The Jungle
DR11 -0.17 dB -13.43 dB 3:23 02-It's So Easy
DR9 -0.15 dB -11.91 dB 4:28 03-Nightrain
DR11 -0.37 dB -12.76 dB 4:24 04-Out Ta Get Me
DR11 0.00 dB -12.85 dB 3:49 05-Mr. Brownstone
DR11 0.00 dB -12.85 dB 6:46 06-Paradise City
DR10 -0.12 dB -12.77 dB 3:40 07-My Michelle
DR10 0.00 dB -11.98 dB 3:52 08-Think About You
DR10 0.00 dB -12.62 dB 5:56 09-Sweet Child O' Mine
DR9 -0.13 dB -11.36 dB 3:17 10-You're Crazy
DR10 0.00 dB -11.86 dB 3:26 11-Anything Goes
DR11 0.00 dB -12.28 dB 6:13 12-Rocket Queen
--------------------------------------------------------------------------------

Number of tracks: 12
Official DR value: DR10

Samplerate: 44100 Hz
Channels: 2
Bits per sample: 16
Bitrate: 999 kbps
Codec: FLAC
================================================================================
01. Guns N' Roses - Welcome To The Jungle [4:34]
02. Guns N' Roses - It's So Easy [3:23]
03. Guns N' Roses - Nightrain [4:28]
04. Guns N' Roses - Out Ta Get Me [4:24]
05. Guns N' Roses - Mr. Brownstone [3:49]
06. Guns N' Roses - Paradise City [6:46]
07. Guns N' Roses - My Michelle [3:40]
08. Guns N' Roses - Think About You [3:52]
09. Guns N' Roses - Sweet Child O' Mine [5:56]
10. Guns N' Roses - You're Crazy [3:17]
11. Guns N' Roses - Anything Goes [3:26]
12. Guns N' Roses - Rocket Queen [6:13]
--------------------------
Total time: [53:48]

Notes:
=====================
Recorded at:
Rumbo Studios, Canoga Park, CA.
Take One Studio, Burbank, CA.
Can Am Studio, Tarzana, CA.

Mixed at Media Sound, NYC.

Album and cassette originally mastered at Sterling Sound, NYC.

All songs © 1987 Guns N' Roses Music BMI

℗ & © 1987 The David Geffen Company, an MCA Company

Made in the EC (on back inlay)
Made in Germany (on the disc)

Distributed by BMG Ariola, a Bertelsmann Music Group Company

Guns N' Roses - Welcome To The Jungle


 
Последнее редактирование:

aheron

Гуру
VIP
Сообщения
15,712
Реакции
18,823
Guns N' Roses - Use Your Illusion I (1991)





Performer: Guns N' Roses
Album: Use Your Illusion I
Label: The David Geffen Company, an MCA Company. Made in Germany.
Catalog #: GED 24415, GEFD 24415
Style: Hard Rock
Year: 1991
Format: FLAC (image + .cue)
Bitrate: lossless
Covers: in archive
Amount of tracks: 16
Size ZIP: ~ 566 mb

Exact Audio Copy V1.0 beta 3 from 29. August 2011

Отчёт EAC об извлечении, выполненном 10. мая 2014, 18:40

Guns N' Roses / Use Your Illusion I [German Geffen GED 24415 GEFD 24415]

Дисковод: SlimtypeDVD A DS8A5SH Adapter: 0 ID: 1

Режим чтения : Достоверность
Использование точного потока : Да
Отключение кэша аудио : Да
Использование указателей C2 : Нет

Коррекция смещения при чтении : 6
Способность читать области Lead-in и Lead-out : Нет
Заполнение пропущенных сэмплов тишиной : Да
Удаление блоков с тишиной в начале и конце : Нет
При вычислениях CRC использовались нулевые сэмплы : Да
Интерфейс : Встроенный Win32-интерфейс для Win NT/2000

Выходной формат : Пользовательский кодировщик
Выбранный битрейт : 1024 kBit/s
Качество : Высокий
Добавление ID3-тега : Нет
Утилита сжатия : C:\Program Files (x86)\Exact Audio Copy\FLAC\FLAC.EXE
Дополнительные параметры : -V -8 -T "Date=%year%" -T "Genre=%genre%" %source%


TOC извлечённого CD

Трек | Старт | Длительность | Начальный сектор | Конечный сектор
---------------------------------------------------------------------
1 | 0:00.33 | 3:02.62 | 33 | 13744
2 | 3:03.20 | 4:58.15 | 13745 | 36109
3 | 8:01.35 | 3:04.08 | 36110 | 49917
4 | 11:05.43 | 4:44.65 | 49918 | 71282
5 | 15:50.33 | 2:23.40 | 71283 | 82047
6 | 18:13.73 | 2:36.12 | 82048 | 93759
7 | 20:50.10 | 5:28.20 | 93760 | 118379
8 | 26:18.30 | 5:03.38 | 118380 | 141142
9 | 31:21.68 | 3:23.55 | 141143 | 156422
10 | 34:45.48 | 8:57.35 | 156423 | 196732
11 | 43:43.08 | 5:22.15 | 196733 | 220897
12 | 49:05.23 | 2:41.47 | 220898 | 233019
13 | 51:46.70 | 5:18.65 | 233020 | 256934
14 | 57:05.60 | 4:28.13 | 256935 | 277047
15 | 61:33.73 | 4:17.45 | 277048 | 296367
16 | 65:51.43 | 10:13.60 | 296368 | 342402


Характеристики диапазона извлечения и сообщения об ошибках

Выбранный диапазон

Имя файла C:\Users\Василий\Desktop\Guns N' Roses 1991 'Use Your Illusion I' [German Geffen GED 24415 GEFD 24415]\Guns N' Roses - Use Your Illusion I [German Geffen GED 24415 GEFD 24415].wav

Пиковый уровень 100.0 %
Скорость извлечения 3.3 X
Качество диапазона 100.0 %
CRC теста BDA5831F
CRC копии BDA5831F
Копирование... OK

Ошибок не произошло


AccurateRip: сводка

Трек 1 : извлечено точно (доверие 28) [672936F3] (AR v2)
Трек 2 : извлечено точно (доверие 28) [FBCBE8CA] (AR v2)
Трек 3 : извлечено точно (доверие 28) [F41DDDAD] (AR v2)
Трек 4 : извлечено точно (доверие 28) [8812AAA0] (AR v2)
Трек 5 : извлечено точно (доверие 28) [F0E0731C] (AR v2)
Трек 6 : извлечено точно (доверие 28) [11391E09] (AR v2)
Трек 7 : извлечено точно (доверие 28) [16A5C5EE] (AR v2)
Трек 8 : извлечено точно (доверие 28) [70C3C428] (AR v2)
Трек 9 : извлечено точно (доверие 28) [C0D05669] (AR v2)
Трек 10 : извлечено точно (доверие 27) [FA0A12C2] (AR v2)
Трек 11 : извлечено точно (доверие 28) [BFBD459E] (AR v2)
Трек 12 : извлечено точно (доверие 28) [36E6D5A4] (AR v2)
Трек 13 : извлечено точно (доверие 28) [660B9F8A] (AR v2)
Трек 14 : извлечено точно (доверие 28) [82F57E45] (AR v2)
Трек 15 : извлечено точно (доверие 28) [87820219] (AR v2)
Трек 16 : извлечено точно (доверие 27) [7AB67093] (AR v2)

Все треки извлечены точно

Конец отчёта

---- CUETools DB Plugin V2.1.3

[CTDB TOCID: 7HHZaGNo.D60GWZXsu1sgoyNRiQ-] found, Submit result: discs with pregaps not supported in this protocol version
[95c7f2df] (349/352) Differs in 0 samples @
[97c47605] (001/352) No match
[572a3bc1] (001/352) No match
[4463cd67] (001/352) No match
You can use CUETools to repair this rip.


==== Контрольная сумма отчёта DAF55AE5126E8FE869F00230EB0E780A4E58E455503DD4D06533DDC57CC011D2 ====
-----------------------

DON'T MODIFY THIS FILE

-----------------------

PERFORMER: auCDtect Task Manager, ver. 1.6.0 RC1 build 1.6.0.1
Copyright (c) 2008-2010 y-soft. All rights reserved


ANALYZER: auCDtect: CD records authenticity detector, version 0.8.2
Copyright (c) 2004 Oleg Berngardt. All rights reserved.
Copyright (c) 2004 Alexander Djourik. All rights reserved.


FILE: Guns N' Roses - Use Your Illusion I [German Geffen GED 24415 GEFD 24415].flac
Size: 538049798 Hash: 60FAD8AD65BAA1172CB84AC754D49242 Accuracy: -m0
Conclusion: CDDA 100%
Signature: 6A1654FFE55AFA857A887140894F71F9D3BA2A72
foobar2000 1.3.8 / Dynamic Range Meter 1.1.1
log date: 2015-06-18 17:21:11

--------------------------------------------------------------------------------
Analyzed: Guns N' Roses / Use Your Illusion I [German Geffen GED 24415 GEFD 24415]
--------------------------------------------------------------------------------

DR Peak RMS Duration Track
--------------------------------------------------------------------------------
DR8 0.00 dB -8.57 dB 3:03 01-Right Next Door To Hell
DR10 0.00 dB -11.15 dB 4:58 02-Dust N' Bones
DR10 0.00 dB -12.50 dB 3:04 03-Live And Let Die
DR10 0.00 dB -12.30 dB 4:45 04-Don't Cry (Original)
DR9 0.00 dB -10.02 dB 2:24 05-Perfect Crime
DR13 -0.17 dB -17.34 dB 2:36 06-You Ain't The First
DR10 0.00 dB -11.24 dB 5:28 07-Bad Obsession
DR10 0.00 dB -10.77 dB 5:04 08-Back Off Bitch
DR11 0.00 dB -12.87 dB 3:24 09-Double Talkin' Jive
DR10 0.00 dB -12.63 dB 8:57 10-November Rain
DR10 0.00 dB -11.71 dB 5:22 11-The Garden
DR9 0.00 dB -9.97 dB 2:42 12-Garden Of Eden
DR9 0.00 dB -10.36 dB 5:19 13-Don't Damn Me
DR10 0.00 dB -10.48 dB 4:28 14-Bad Apples
DR10 0.00 dB -12.18 dB 4:18 15-Dead Horse
DR10 0.00 dB -12.16 dB 10:14 16-Coma
--------------------------------------------------------------------------------

Number of tracks: 16
Official DR value: DR10

Samplerate: 44100 Hz
Channels: 2
Bits per sample: 16
Bitrate: 943 kbps
Codec: FLAC
================================================================================
01. Guns N' Roses - Right Next Door To Hell [3:03]
02. Guns N' Roses - Dust N' Bones [4:58]
03. Guns N' Roses - Live And Let Die [3:04]
04. Guns N' Roses - Don't Cry (Original) [4:45]
05. Guns N' Roses - Perfect Crime [2:24]
06. Guns N' Roses - You Ain't The First [2:36]
07. Guns N' Roses - Bad Obsession [5:28]
08. Guns N' Roses - Back Off Bitch [5:04]
09. Guns N' Roses - Double Talkin' Jive [3:24]
10. Guns N' Roses - November Rain [8:57]
11. Guns N' Roses - The Garden [5:22]
12. Guns N' Roses - Garden Of Eden [2:42]
13. Guns N' Roses - Don't Damn Me [5:19]
14. Guns N' Roses - Bad Apples [4:28]
15. Guns N' Roses - Dead Horse [4:18]
16. Guns N' Roses - Coma [10:14]
--------------------------
Total time: [1:16:05]

Credits:
===================
Vocals: W. Axl Rose
Guitars: Izzy Stradlin
Guitars: Slash
Bass: Duff McKeagan
Drums: Matt Sorum

Notes:
=====================
Ⓟ & Ⓒ 1991 The David Geffen Company, an MCA Company

Matrix: SONOPRESS F-5328 / GED24415 B1

Guns N' Roses - Don't Cry


 
Последнее редактирование:

aheron

Гуру
VIP
Сообщения
15,712
Реакции
18,823
Guns N' Roses - Use Your Illusion II (1991)





Performer: Guns N' Roses
Album: Use Your Illusion II
Label: The David Geffen Company, an MCA Company. Made in Germany.
Catalog #: GED 24420, GEFD 24420
Style: Hard Rock
Year: 1991
Format: FLAC (image + .cue)
Bitrate: lossless
Covers: in archive
Amount of tracks: 14
Size ZIP: ~ 570 mb

Exact Audio Copy V1.0 beta 6 from 9. April 2015

Отчёт EAC об извлечении, выполненном 12. июня 2015, 14:57

Guns N' Roses / Use Your Illusion II [German Geffen GED 24420/GEFD 24420]

Дисковод: SlimtypeDVD A DS8A5SH Adapter: 1 ID: 0

Режим чтения : Достоверность
Использование точного потока : Да
Отключение кэша аудио : Да
Использование указателей C2 : Нет

Коррекция смещения при чтении : 6
Способность читать области Lead-in и Lead-out : Нет
Заполнение пропущенных сэмплов тишиной : Да
Удаление блоков с тишиной в начале и конце : Нет
При вычислениях CRC использовались нулевые сэмплы : Да
Интерфейс : Встроенный Win32-интерфейс для Win NT/2000

Выходной формат : Пользовательский кодировщик
Выбранный битрейт : 1024 kBit/s
Качество : Высокий
Добавление ID3-тега : Нет
Утилита сжатия : C:\Program Files (x86)\Exact Audio Copy\FLAC\FLAC.EXE
Дополнительные параметры : -V -8 -T "Date=%year%" -T "Genre=%genre%" %source%


TOC извлечённого CD

Трек | Старт | Длительность | Начальный сектор | Конечный сектор
---------------------------------------------------------------------
1 | 0:00.33 | 7:42.65 | 33 | 34747
2 | 7:43.23 | 4:21.25 | 34748 | 54347
3 | 12:04.48 | 3:16.17 | 54348 | 69064
4 | 15:20.65 | 5:36.15 | 69065 | 94279
5 | 20:57.05 | 5:41.08 | 94280 | 119862
6 | 26:38.13 | 3:23.00 | 119863 | 135087
7 | 30:01.13 | 7:04.45 | 135088 | 166932
8 | 37:05.58 | 4:47.65 | 166933 | 188522
9 | 41:53.48 | 8:42.05 | 188523 | 227677
10 | 50:35.53 | 4:06.25 | 227678 | 246152
11 | 54:42.03 | 9:23.67 | 246153 | 288444
12 | 64:05.70 | 5:43.53 | 288445 | 314222
13 | 69:49.48 | 4:44.17 | 314223 | 335539
14 | 74:33.65 | 1:23.58 | 335540 | 341822


Характеристики диапазона извлечения и сообщения об ошибках

Выбранный диапазон

Имя файла C:\Users\UncleVasia\Desktop\Guns N' Roses 1991 'Use Your Illusion II' [German Geffen GED 24420 GEFD 24420]\Guns N' Roses - Use Your Illusion II [German Geffen GED 24420,GEFD 24420].wav

Пиковый уровень 100.0 %
Скорость извлечения 3.3 X
Качество диапазона 100.0 %
CRC теста 522D693A
CRC копии 522D693A
Копирование... OK

Ошибок не произошло


AccurateRip: сводка

Трек 1 : извлечено точно (доверие 200) [99F4E7BB] (AR v2)
Трек 2 : извлечено точно (доверие 200) [26CD7624] (AR v2)
Трек 3 : извлечено точно (доверие 200) [8ABC98F5] (AR v2)
Трек 4 : извлечено точно (доверие 200) [291E133E] (AR v2)
Трек 5 : извлечено точно (доверие 200) [3F643662] (AR v2)
Трек 6 : извлечено точно (доверие 200) [3A6AFA90] (AR v2)
Трек 7 : извлечено точно (доверие 200) [434317DC] (AR v2)
Трек 8 : извлечено точно (доверие 200) [8B558A2A] (AR v2)
Трек 9 : извлечено точно (доверие 200) [E6E5E892] (AR v2)
Трек 10 : извлечено точно (доверие 200) [CD6854D5] (AR v2)
Трек 11 : извлечено точно (доверие 200) [9E553F15] (AR v2)
Трек 12 : извлечено точно (доверие 200) [C27EBD6E] (AR v2)
Трек 13 : извлечено точно (доверие 200) [1F3ECC0A] (AR v2)
Трек 14 : извлечено точно (доверие 200) [AE4C6221] (AR v2)

Все треки извлечены точно

Конец отчёта

---- CUETools DB Plugin V2.1.6

[CTDB TOCID: qGYsSFQyn1Zugp_SuzVW8zay29s-] found
Submit result: qGYsSFQyn1Zugp_SuzVW8zay29s- has been confirmed
Track | CTDB Status
1 | (241/247) Accurately ripped
2 | (241/247) Accurately ripped
3 | (238/247) Accurately ripped
4 | (238/247) Accurately ripped
5 | (237/247) Accurately ripped
6 | (237/247) Accurately ripped
7 | (235/247) Accurately ripped
8 | (237/247) Accurately ripped
9 | (234/247) Accurately ripped
10 | (236/247) Accurately ripped
11 | (235/247) Accurately ripped
12 | (234/247) Accurately ripped
13 | (233/247) Accurately ripped
14 | (232/247) Accurately ripped


==== Контрольная сумма отчёта 99D7DE11320F49C16606B783F6EEFB96B190E023F70C6115EB60CE228B0776B0 ====
-----------------------

DON'T MODIFY THIS FILE

-----------------------

PERFORMER: auCDtect Task Manager, ver. 1.6.0 RC1 build 1.6.0.1
Copyright (c) 2008-2010 y-soft. All rights reserved


ANALYZER: auCDtect: CD records authenticity detector, version 0.8.2
Copyright (c) 2004 Oleg Berngardt. All rights reserved.
Copyright (c) 2004 Alexander Djourik. All rights reserved.


FILE: Guns N' Roses - Use Your Illusion II [German Geffen GED 24420,GEFD 24420].flac
Size: 534112138 Hash: CBB1D8FAC6C71CB1A9EDAE3EEAAF1740 Accuracy: -m0
Conclusion: CDDA 100%
Signature: DBE936906C8B3E09CA07B085EF152B507202CF28
foobar2000 1.3.8 / Dynamic Range Meter 1.1.1
log date: 2015-06-18 19:05:19

--------------------------------------------------------------------------------
Analyzed: Guns N' Roses / Use Your Illusion II [German Geffen GED 24420/GEFD 24420]
--------------------------------------------------------------------------------

DR Peak RMS Duration Track
--------------------------------------------------------------------------------
DR11 -0.09 dB -12.97 dB 7:43 01-Civil War
DR9 -0.03 dB -10.75 dB 4:21 02-14 Years
DR10 -0.08 dB -12.31 dB 3:16 03-Yesterdays
DR10 0.00 dB -11.93 dB 5:36 04-Knockin' On Heaven's Door
DR9 -0.05 dB -10.55 dB 5:41 05-Get In The Ring
DR10 -0.16 dB -10.96 dB 3:23 06-Shotgun Blues
DR10 -0.01 dB -11.82 dB 7:05 07-Breakdown
DR10 -0.08 dB -11.53 dB 4:48 08-Pretty Tied Up
DR10 -0.06 dB -11.39 dB 8:42 09-Locomotive
DR10 -0.12 dB -12.89 dB 4:06 10-So Fine
DR10 -0.03 dB -12.53 dB 9:24 11-Estranged
DR9 -0.06 dB -10.68 dB 5:44 12-You Could Be Mine
DR9 -0.01 dB -11.89 dB 4:44 13-Don't Cry (Alt. Lyrics)
DR9 0.00 dB -10.62 dB 1:24 14-My World
--------------------------------------------------------------------------------

Number of tracks: 14
Official DR value: DR10

Samplerate: 44100 Hz
Channels: 2
Bits per sample: 16
Bitrate: 937 kbps
Codec: FLAC
================================================================================
01. Guns N' Roses - Civil War [7:43]
02. Guns N' Roses - 14 Years [4:21]
03. Guns N' Roses - Yesterdays [3:16]
04. Guns N' Roses - Knockin' On Heaven's Door [5:36]
05. Guns N' Roses - Get In The Ring [5:41]
06. Guns N' Roses - Shotgun Blues [3:23]
07. Guns N' Roses - Breakdown [7:05]
08. Guns N' Roses - Pretty Tied Up [4:48]
09. Guns N' Roses - Locomotive [8:42]
10. Guns N' Roses - So Fine [4:06]
11. Guns N' Roses - Estranged [9:24]
12. Guns N' Roses - You Could Be Mine [5:44]
13. Guns N' Roses - Don't Cry (Alt. Lyrics) [4:44]
14. Guns N' Roses - My World [1:24]
--------------------------
Total time: [1:15:57]

Credits:
===================
Vocals: W. Axl Rose
Guitars: Izzy Stradlin
Guitars: Slash
Bass: Duff McKeagan
Drums: Matt Sorum

Notes:
=====================
Ⓟ & Ⓒ 1991 The David Geffen Company, an MCA Company

Matrix: Sonopress G-3041 / GED 22420 A

Guns N' Roses - You Could Be Mine


 
Последнее редактирование:

Similar threads

Ответы
10
Просмотры
915
Ответы
0
Просмотры
850
Ответы
0
Просмотры
772
Сверху