In-Grid

sergych

Ёшкин кот
VIP
Сообщения
2,246
Реакции
8,401




Итальянская певица Ingrid Alberini, покорившая мировую поп-сцену под псевдонимом In-Grid, родилась 11 сентября 1978 года в небольшом городе Гуасталла недалеко от Пармы. В семье Ингрид кино играло далеко не последнюю роль: ее родители и по сей день владеют кинотеатром, и даже имя певица получила в честь знаменитой шведской актрисы Ингрид Бергман. А детство Ингрид прошло в просмотрах многочисленных фильмов, которые, по ее словам, стали решающим фактором для принятия решения стать певицей. Фильмы возбуждали ее воображение и подпитывали желание поделиться сильными чувствами с как можно большим количеством людей.
 
Последнее редактирование модератором:

sergych

Ёшкин кот
VIP
Сообщения
2,246
Реакции
8,401
2003 - Rendez-Vous (2CD's)



Исполнитель/Artist: In-Grid
Альбом/Album: Rendez-Vous (2CD's)
Год/Year: 2003
Жанр/Genre: Europop, Eurodance
Страна/Country: Германия
Рекорд-лейбл/Record label: ZYX Music
Номер в каталоге/Catalogue #: 20646-2
Формат/Format: Free Lossless Audio Codec (*.flac)
Качество/Quality: Lossless
Тип рипа/RIP Type: tracks+.cue
Продолжительность/Length: 01:13:44
Источник/Source: Собственный рип
Размер/Size: 584.6 MB

Сканы в комплекте

CD1
01 - In-Tango
02 - Tu Es Foutu
03 - Mais La Nuit ... Il Dort! (The Night...He sleeps)
04 - Shock
05 - Dans Ma Memoire (In My Memory)
06 - Pour Tojours (For Always)
07 - Souvenir D'ete (To Remember Summer)
08 - I'm Folie De Toi (I'm Insane For You)
09 - Je Ne Crois Pas (I Do Not Believe)
10 - Esclave De Toi (Slave Of You)
11 - Ah L'Amour L'Amour (Ah Love Love)
12 - Va Au Diable (Go To The Devil)

CD2
01 - Tu Es Foutu (Original Extended)
02 - Tu Es Foutu - THE REMIXES (Miami Grazin' Dub)
03 - You Promised Me (Tu Es Foutu) (Sfaction Mix)
04 - In-Tango (In-String Extended)
05 - Shock (Gambafreaks vs. III Sound Academy Extended Remix)
06 - Shock (Xmas)


CD1
Exact Audio Copy V1.0 beta 3 from 29. August 2011

EAC extraction logfile from 9. September 2013, 15:28

In-Grid / Rendez-Vous - CD 1

Used drive : HL-DT-STDVDRAM GH22NS50 Adapter: 2 ID: 1

Read mode : Secure
Utilize accurate stream : Yes
Defeat audio cache : Yes
Make use of C2 pointers : No

Read offset correction : 667
Overread into Lead-In and Lead-Out : No
Fill up missing offset samples with silence : Yes
Delete leading and trailing silent blocks : No
Null samples used in CRC calculations : Yes
Used interface : Native Win32 interface for Win NT & 2000
Gap handling : Appended to previous track

Used output format : User Defined Encoder
Selected bitrate : 1024 kBit/s
Quality : High
Add ID3 tag : No
Command line compressor : C:\MMProgram\Exact Audio Copy\FLAC\FLAC.EXE
Additional command line options : -6 -V -T "ARTIST=%artist%" -T "TITLE=%title%" -T "ALBUM=%albumtitle%" -T "DATE=%year%" -T "TRACKNUMBER=%tracknr%" -T "GENRE=%genre%" -T "COMMENT=%comment%" -T "BAND=%albuminterpret%" -T "ALBUMARTIST=%albuminterpret%" -T "COMPOSER=%composer%" %haslyrics%--tag-from-file=LYRICS="%lyricsfile%"%haslyrics% -T "DISCNUMBER=%cdnumber%" -T "TOTALDISCS=%totalcds%" -T "TOTALTRACKS=%numtracks%" %hascover%--picture="%coverfile%"%hascover% %source% -o %dest%


TOC of the extracted CD

Track | Start | Length | Start sector | End sector
---------------------------------------------------------
1 | 0:00.00 | 3:27.63 | 0 | 15587
2 | 3:27.63 | 3:38.71 | 15588 | 32008
3 | 7:06.59 | 3:46.23 | 32009 | 48981
4 | 10:53.07 | 3:33.69 | 48982 | 65025
5 | 14:27.01 | 3:45.63 | 65026 | 81963
6 | 18:12.64 | 3:55.46 | 81964 | 99634
7 | 22:08.35 | 3:32.69 | 99635 | 115603
8 | 25:41.29 | 3:35.21 | 115604 | 131749
9 | 29:16.50 | 3:22.66 | 131750 | 146965
10 | 32:39.41 | 3:34.24 | 146966 | 163039
11 | 36:13.65 | 3:29.48 | 163040 | 178762
12 | 39:43.38 | 3:21.23 | 178763 | 193860


Track 1

Filename D:\mm\In-Grid\2003 - Rendez-Vous (2CD's)\CD1\01 - In-Tango.wav

Pre-gap length 0:00:02.00

Peak level 94.9 %
Extraction speed 0.8 X
Track quality 99.9 %
Test CRC 563641E4
Copy CRC 563641E4
Accurately ripped (confidence 13) [3E2B342D] (AR v2)
Copy OK

Track 2

Filename D:\mm\In-Grid\2003 - Rendez-Vous (2CD's)\CD1\02 - Tu Es Foutu.wav

Pre-gap length 0:00:02.00

Peak level 96.6 %
Extraction speed 1.1 X
Track quality 100.0 %
Test CRC DA42B3F9
Copy CRC DA42B3F9
Accurately ripped (confidence 14) [59F4C78A] (AR v2)
Copy OK

Track 3

Filename D:\mm\In-Grid\2003 - Rendez-Vous (2CD's)\CD1\03 - Mais La Nuit ... Il Dort! (The Night...He sleeps).wav

Pre-gap length 0:00:02.00

Peak level 94.4 %
Extraction speed 1.2 X
Track quality 100.0 %
Test CRC 5C963FB8
Copy CRC 5C963FB8
Accurately ripped (confidence 14) [B49D7118] (AR v2)
Copy OK

Track 4

Filename D:\mm\In-Grid\2003 - Rendez-Vous (2CD's)\CD1\04 - Shock.wav

Pre-gap length 0:00:02.00

Peak level 96.6 %
Extraction speed 1.3 X
Track quality 100.0 %
Test CRC C4352875
Copy CRC C4352875
Accurately ripped (confidence 14) [DCA62817] (AR v2)
Copy OK

Track 5

Filename D:\mm\In-Grid\2003 - Rendez-Vous (2CD's)\CD1\05 - Dans Ma Memoire (In My Memory).wav

Pre-gap length 0:00:02.00

Peak level 94.9 %
Extraction speed 1.4 X
Track quality 100.0 %
Test CRC 75022DBA
Copy CRC 75022DBA
Accurately ripped (confidence 13) [2E97355D] (AR v2)
Copy OK

Track 6

Filename D:\mm\In-Grid\2003 - Rendez-Vous (2CD's)\CD1\06 - Pour Tojours (For Always).wav

Pre-gap length 0:00:02.00

Peak level 96.6 %
Extraction speed 1.4 X
Track quality 100.0 %
Test CRC 8B2BBCBF
Copy CRC 8B2BBCBF
Accurately ripped (confidence 13) [2EAD9BED] (AR v2)
Copy OK

Track 7

Filename D:\mm\In-Grid\2003 - Rendez-Vous (2CD's)\CD1\07 - Souvenir D'ete (To Remember Summer).wav

Pre-gap length 0:00:02.00

Peak level 96.6 %
Extraction speed 1.5 X
Track quality 100.0 %
Test CRC 8FA2292F
Copy CRC 8FA2292F
Accurately ripped (confidence 14) [C603AF0C] (AR v2)
Copy OK

Track 8

Filename D:\mm\In-Grid\2003 - Rendez-Vous (2CD's)\CD1\08 - I'm Folie De Toi (I'm Insane For You).wav

Pre-gap length 0:00:02.00

Peak level 94.4 %
Extraction speed 1.6 X
Track quality 100.0 %
Test CRC CE5E3310
Copy CRC CE5E3310
Accurately ripped (confidence 14) [51A9665A] (AR v2)
Copy OK

Track 9

Filename D:\mm\In-Grid\2003 - Rendez-Vous (2CD's)\CD1\09 - Je Ne Crois Pas (I Do Not Believe).wav

Pre-gap length 0:00:02.00

Peak level 96.9 %
Extraction speed 1.6 X
Track quality 100.0 %
Test CRC 8F194A60
Copy CRC 8F194A60
Accurately ripped (confidence 14) [A62E9E64] (AR v2)
Copy OK

Track 10

Filename D:\mm\In-Grid\2003 - Rendez-Vous (2CD's)\CD1\10 - Esclave De Toi (Slave Of You).wav

Pre-gap length 0:00:01.74

Peak level 96.6 %
Extraction speed 0.2 X
Track quality 100.0 %
Test CRC 0DB87302
Copy CRC 0DB87302
Accurately ripped (confidence 14) [271B094A] (AR v2)
Copy OK

Track 11

Filename D:\mm\In-Grid\2003 - Rendez-Vous (2CD's)\CD1\11 - Ah L'Amour L'Amour (Ah Love Love).wav

Pre-gap length 0:00:02.00

Peak level 90.9 %
Extraction speed 2.1 X
Track quality 100.0 %
Test CRC 2D304DDB
Copy CRC 2D304DDB
Accurately ripped (confidence 14) [A60D0568] (AR v2)
Copy OK

Track 12

Filename D:\mm\In-Grid\2003 - Rendez-Vous (2CD's)\CD1\12 - Va Au Diable (Go To The Devil).wav

Pre-gap length 0:00:02.00

Peak level 96.6 %
Extraction speed 2.1 X
Track quality 100.0 %
Test CRC 4453E4F9
Copy CRC 4453E4F9
Accurately ripped (confidence 13) [99DE3A5F] (AR v2)
Copy OK


All tracks accurately ripped

No errors occurred

End of status report

CD2
Exact Audio Copy V1.0 beta 3 from 29. August 2011

EAC extraction logfile from 9. September 2013, 16:44

In-Grid / Rendez-Vous (Bonus Disc)

Used drive : HL-DT-STDVDRAM GH22NS50 Adapter: 2 ID: 1

Read mode : Secure
Utilize accurate stream : Yes
Defeat audio cache : Yes
Make use of C2 pointers : No

Read offset correction : 667
Overread into Lead-In and Lead-Out : No
Fill up missing offset samples with silence : Yes
Delete leading and trailing silent blocks : No
Null samples used in CRC calculations : Yes
Used interface : Native Win32 interface for Win NT & 2000
Gap handling : Appended to previous track

Used output format : User Defined Encoder
Selected bitrate : 1024 kBit/s
Quality : High
Add ID3 tag : No
Command line compressor : C:\MMProgram\Exact Audio Copy\FLAC\FLAC.EXE
Additional command line options : -6 -V -T "ARTIST=%artist%" -T "TITLE=%title%" -T "ALBUM=%albumtitle%" -T "DATE=%year%" -T "TRACKNUMBER=%tracknr%" -T "GENRE=%genre%" -T "COMMENT=%comment%" -T "BAND=%albuminterpret%" -T "ALBUMARTIST=%albuminterpret%" -T "COMPOSER=%composer%" %haslyrics%--tag-from-file=LYRICS="%lyricsfile%"%haslyrics% -T "DISCNUMBER=%cdnumber%" -T "TOTALDISCS=%totalcds%" -T "TOTALTRACKS=%numtracks%" %hascover%--picture="%coverfile%"%hascover% %source% -o %dest%


TOC of the extracted CD

Track | Start | Length | Start sector | End sector
---------------------------------------------------------
1 | 0:00.00 | 6:00.72 | 0 | 27071
2 | 6:00.72 | 6:51.33 | 27072 | 57929
3 | 12:52.30 | 5:00.21 | 57930 | 80450
4 | 17:52.51 | 4:24.45 | 80451 | 100295
5 | 22:17.21 | 5:17.29 | 100296 | 124099
6 | 27:34.50 | 3:35.69 | 124100 | 140293
7 | 33:42.44 | 9:56.16 | 151694 | 196409


Track 1

Filename D:\mm\In-Grid\2003 - Rendez-Vous (2CD's)\CD2\01 - Tu Es Foutu (Original Extended).wav

Pre-gap length 0:00:02.00

Peak level 96.6 %
Extraction speed 1.1 X
Track quality 100.0 %
Test CRC 5CD5A3FD
Copy CRC 5CD5A3FD
Cannot be verified as accurate (confidence 5) [4F58817F], AccurateRip returned [8D71FC28] (AR v2)
Copy OK

Track 2

Filename D:\mm\In-Grid\2003 - Rendez-Vous (2CD's)\CD2\02 - Tu Es Foutu - THE REMIXES (Miami Grazin' Dub).wav

Pre-gap length 0:00:01.00

Peak level 96.6 %
Extraction speed 1.3 X
Track quality 100.0 %
Test CRC 0DC43AD2
Copy CRC 0DC43AD2
Cannot be verified as accurate (confidence 5) [600C5F57], AccurateRip returned [14001D7E] (AR v2)
Copy OK

Track 3

Filename D:\mm\In-Grid\2003 - Rendez-Vous (2CD's)\CD2\03 - You Promised Me (Tu Es Foutu) (Sfaction Mix).wav

Pre-gap length 0:00:02.00

Peak level 85.9 %
Extraction speed 1.4 X
Track quality 100.0 %
Test CRC B675F1C5
Copy CRC B675F1C5
Cannot be verified as accurate (confidence 5) [BC135B06], AccurateRip returned [CEFA6EB9] (AR v2)
Copy OK

Track 4

Filename D:\mm\In-Grid\2003 - Rendez-Vous (2CD's)\CD2\04 - In-Tango (In-String Extended).wav

Pre-gap length 0:00:02.00

Peak level 96.9 %
Extraction speed 1.3 X
Track quality 99.9 %
Test CRC D08FC2C8
Copy CRC D08FC2C8
Cannot be verified as accurate (confidence 5) [D3AE2203], AccurateRip returned [10236E08] (AR v2)
Copy OK

Track 5

Filename D:\mm\In-Grid\2003 - Rendez-Vous (2CD's)\CD2\05 - Shock (Gambafreaks vs. III Sound Academy Extended Remix).wav

Pre-gap length 0:00:02.00

Peak level 96.9 %
Extraction speed 1.4 X
Track quality 99.9 %
Test CRC 10FE95A1
Copy CRC 10FE95A1
Cannot be verified as accurate (confidence 5) [46A085F8], AccurateRip returned [6C439413] (AR v2)
Copy OK

Track 6

Filename D:\mm\In-Grid\2003 - Rendez-Vous (2CD's)\CD2\06 - Shock (Xmas).wav

Pre-gap length 0:00:02.00

Peak level 96.6 %
Extraction speed 1.6 X
Track quality 100.0 %
Test CRC B1B209E1
Copy CRC B1B209E1
Cannot be verified as accurate (confidence 5) [E8EDC860], AccurateRip returned [9CB00650] (AR v2)
Copy OK


No tracks could be verified as accurate
You may have a different pressing from the one(s) in the database

No errors occurred

End of status report
CD1
AUDIOCHECKER v2.0 beta (build 457) - by Dester - [email protected]
~~~~~~~~~~~~~~~~~~~~~~~~~~~~~~~~~~
-=== НЕ РЕДАКТИРУЙТЕ ЭТОТ ФАЙЛ! ===-

Путь: ...\CD1

01 -=- 01 - In-Tango.flac -=- CDDA (100%)
02 -=- 02 - Tu Es Foutu.flac -=- CDDA (100%)
03 -=- 03 - Mais La Nuit ... Il Dort! (The Night...He sleeps).flac -=- CDDA (99%)
04 -=- 04 - Shock.flac -=- CDDA (100%)
05 -=- 05 - Dans Ma Memoire (In My Memory).flac -=- CDDA (100%)
06 -=- 06 - Pour Tojours (For Always).flac -=- CDDA (100%)
07 -=- 07 - Souvenir D'ete (To Remember Summer).flac -=- CDDA (100%)
08 -=- 08 - I'm Folie De Toi (I'm Insane For You).flac -=- CDDA (100%)
09 -=- 09 - Je Ne Crois Pas (I Do Not Believe).flac -=- CDDA (100%)
10 -=- 10 - Esclave De Toi (Slave Of You).flac -=- CDDA (100%)
11 -=- 11 - Ah L'Amour L'Amour (Ah Love Love).flac -=- CDDA (100%)
12 -=- 12 - Va Au Diable (Go To The Devil).flac -=- CDDA (100%)

Сводка 99,92% CDDA

83594772

CD2
AUDIOCHECKER v2.0 beta (build 457) - by Dester - [email protected]
~~~~~~~~~~~~~~~~~~~~~~~~~~~~~~~~~~
-=== НЕ РЕДАКТИРУЙТЕ ЭТОТ ФАЙЛ! ===-

Путь: ...\CD2

1 -=- 01 - Tu Es Foutu (Original Extended).flac -=- CDDA (100%)
2 -=- 02 - Tu Es Foutu - THE REMIXES (Miami Grazin' Dub).flac -=- CDDA (100%)
3 -=- 03 - You Promised Me (Tu Es Foutu) (Sfaction Mix).flac -=- CDDA (100%)
4 -=- 04 - In-Tango (In-String Extended).flac -=- CDDA (99%)
5 -=- 05 - Shock (Gambafreaks vs. III Sound Academy Extended Remix).flac -=- CDDA (100%)
6 -=- 06 - Shock (Xmas).flac -=- CDDA (100%)

Сводка 99,83% CDDA

220629524
Для просмотра содержимого вам необходимо Войти или Зарегистрироваться.​
 
Последнее редактирование:

sergych

Ёшкин кот
VIP
Сообщения
2,246
Реакции
8,401
2010 - Passion



Исполнитель/Artist: In-Grid
Альбом/Album: Passion
Год/Year: 2010
Жанр/Genre: Pop, dance pop
Страна/Country: Украина
Рекорд-лейбл/Record label: X-Energy Records / Odyssey Company
Номер в каталоге/Catalogue #: OD 001070
Формат/Format: Free Lossless Audio Codec (*.flac)
Качество/Quality: Lossless
Тип рипа/RIP Type: image+.cue
Продолжительность/Length: 00:48:21
Источник/Source: Из интернета
Размер/Size: 372.1 MB

Сканы в комплекте

01 - Les Fous
02 - Le Dragueur
03 - Amour Ma Passion
04 - Movie Star
05 - Jalousie
06 - Les Jeux Sont Faits
07 - Sweet Desire
08 - Vive Le Swing
09 - C'est L'amour
10 - Le Cri Du Coeur
11 - Tout Pour Toi
12 - Papillonne Sur Moi
13 - A Ma Facon
14 - Tu Es La (feat. Pochill)


Exact Audio Copy V0.99 prebeta 5 from 4. May 2009

Отчёт EAC об извлечении, выполненном 6. января 2010, 14:02

In-Grid / Passion

Дисковод: PIONEER DVD-RW DVR-111D Adapter: 0 ID: 0

Режим чтения : Достоверность
Использование точного потока : Да
Отключение кэша аудио : Да
Использование указателей C2 : Нет

Коррекция смещения при чтении : 48
Способность читать области Lead-in и Lead-out : Нет
Заполнение пропущенных сэмплов тишиной : Да
Удаление блоков с тишиной в начале и конце : Нет
При вычислениях CRC использовались нулевые сэмплы : Да
Интерфейс : Встроенный Win32-интерфейс для Win NT/2000

Выходной формат : Внутренние WAV-операции
Формат сэмплов : 44.100 Гц; 16 бит; стерео


TOC извлечённого CD

Трек | Старт | Длительность | Начальный сектор | Конечный сектор
---------------------------------------------------------------------
1 | 0:00.00 | 3:30.73 | 0 | 15822
2 | 3:30.73 | 3:14.68 | 15823 | 30440
3 | 6:45.66 | 3:25.23 | 30441 | 45838
4 | 10:11.14 | 3:50.08 | 45839 | 63096
5 | 14:01.22 | 3:18.60 | 63097 | 78006
6 | 17:20.07 | 3:23.62 | 78007 | 93293
7 | 20:43.69 | 3:28.35 | 93294 | 108928
8 | 24:12.29 | 3:21.17 | 108929 | 124020
9 | 27:33.46 | 3:24.63 | 124021 | 139383
10 | 30:58.34 | 3:47.73 | 139384 | 156481
11 | 34:46.32 | 3:18.19 | 156482 | 171350
12 | 38:04.51 | 3:33.22 | 171351 | 187347
13 | 41:37.73 | 3:18.05 | 187348 | 202202
14 | 44:56.03 | 3:25.68 | 202203 | 217645


Характеристики диапазона извлечения и сообщения об ошибках

Выбранный диапазон

Имя файла C:\Documents and Settings\Владелец\Рабочий стол\In-Grid - Passion (2010)\In-Grid - Passion.wav

Пиковый уровень 100.0 %
Качество диапазона 100.0 %
CRC теста A1DED4AB
CRC копии A1DED4AB
Копирование... OK

Ошибок не произошло


AccurateRip: сводка

Трек 1 нет в базе данных
Трек 2 нет в базе данных
Трек 3 нет в базе данных
Трек 4 нет в базе данных
Трек 5 нет в базе данных
Трек 6 нет в базе данных
Трек 7 нет в базе данных
Трек 8 нет в базе данных
Трек 9 нет в базе данных
Трек 10 нет в базе данных
Трек 11 нет в базе данных
Трек 12 нет в базе данных
Трек 13 нет в базе данных
Трек 14 нет в базе данных

Ни одного трека нет в базе AccurateRip

Конец отчёта
AUDIOCHECKER v2.0 beta (build 457) - by Dester - [email protected]
~~~~~~~~~~~~~~~~~~~~~~~~~~~~~~~~~~
-=== НЕ РЕДАКТИРУЙТЕ ЭТОТ ФАЙЛ! ===-

Путь: ...\2010 - Passion

1 -=- In-Grid - Passion.flac -=- CDDA (100%)

150302772
Для просмотра содержимого вам необходимо Войти или Зарегистрироваться.​
 
Последнее редактирование:

sergych

Ёшкин кот
VIP
Сообщения
2,246
Реакции
8,401
2011 - Lounge Musique



Исполнитель/Artist: In-Grid
Альбом/Album: Lounge Musique
Год/Year: 2011
Жанр/Genre: Pop, dance pop, chanson, ballads
Страна/Country: Украина
Рекорд-лейбл/Record label: Soundelux Records / Odyssey Company
Номер в каталоге/Catalogue #: 4823022800016
Формат/Format: Free Lossless Audio Codec (*.flac)
Качество/Quality: Lossless
Тип рипа/RIP Type: image+.cue
Продолжительность/Length: 00:51:23
Источник/Source: Из интернета
Размер/Size: 401.1 MB

Сканы в комплекте

01 - Comment Te Dire Adieu
02 - Les Enfants Du Piree
03 - Tu Veux Ou Tu Veux Pas
04 - Etienne
05 - Mais Non Mais Oui
06 - C'est Si Bon
07 - Alchimie
08 - Sympathique
09 - Tentacion Al Hombre
10 - C'est La Ouate
11 - Quiero Vivir
12 - Ange Ou Diable
13 - L'ete Indien
14 - Papillonne Sur Moi (Fab Samperi Remix)
Exact Audio Copy V0.99 prebeta 5 from 4. May 2009

EAC extraction logfile from 3. June 2011, 22:56

In-Grid / Lounge musique

Used drive : HL-DT-STDVD-RAM GSA-H22L Adapter: 1 ID: 1

Read mode : Secure
Utilize accurate stream : Yes
Defeat audio cache : Yes
Make use of C2 pointers : No

Read offset correction : 102
Overread into Lead-In and Lead-Out : No
Fill up missing offset samples with silence : Yes
Delete leading and trailing silent blocks : No
Null samples used in CRC calculations : Yes
Used interface : Native Win32 interface for Win NT & 2000

Used output format : User Defined Encoder
Selected bitrate : 128 kBit/s
Quality : High
Add ID3 tag : No
Command line compressor : C:\Program Files\Exact Audio Copy\Flac\flac.exe
Additional command line options : -8 -V %s


TOC of the extracted CD

Track | Start | Length | Start sector | End sector
---------------------------------------------------------
1 | 0:00.00 | 3:45.55 | 0 | 16929
2 | 3:45.55 | 3:50.72 | 16930 | 34251
3 | 7:36.52 | 2:44.36 | 34252 | 46587
4 | 10:21.13 | 3:41.72 | 46588 | 63234
5 | 14:03.10 | 3:22.10 | 63235 | 78394
6 | 17:25.20 | 3:39.11 | 78395 | 94830
7 | 21:04.31 | 3:40.61 | 94831 | 111391
8 | 24:45.17 | 3:28.37 | 111392 | 127028
9 | 28:13.54 | 3:36.48 | 127029 | 143276
10 | 31:50.27 | 3:18.26 | 143277 | 158152
11 | 35:08.53 | 3:33.43 | 158153 | 174170
12 | 38:42.21 | 3:49.69 | 174171 | 191414
13 | 42:32.15 | 4:24.48 | 191415 | 211262
14 | 46:56.63 | 4:27.02 | 211263 | 231289


Range status and errors

Selected range

Filename D:\In-Grid_-_Lounge_Musique\In-Grid.wav

Peak level 98.8 %
Range quality 99.9 %
Test CRC 05387F5D
Copy CRC 05387F5D
Copy OK

No errors occurred


AccurateRip summary

Track 1 not present in database
Track 2 not present in database
Track 3 not present in database
Track 4 not present in database
Track 5 not present in database
Track 6 not present in database
Track 7 not present in database
Track 8 not present in database
Track 9 not present in database
Track 10 not present in database
Track 11 not present in database
Track 12 not present in database
Track 13 not present in database
Track 14 not present in database

None of the tracks are present in the AccurateRip database

End of status report
AUDIOCHECKER v2.0 beta (build 457) - by Dester - [email protected]
~~~~~~~~~~~~~~~~~~~~~~~~~~~~~~~~~~
-=== DO NOT EDIT THIS FILE! ===-

Path: ...\In-Grid - Lounge Musique_2011 [FLAC]

1 -=- In-Grid.flac -=- CDDA (100%)

117216180
Для просмотра содержимого вам необходимо Войти или Зарегистрироваться.​
 
Последнее редактирование:

sergych

Ёшкин кот
VIP
Сообщения
2,246
Реакции
8,401
2011 - Star Hit



Исполнитель/Artist: In-Grid
Альбом/Album: Star Hit
Год/Year: 2011
Жанр/Genre: Pop, dance pop, eurodance
Страна/Country: Россия
Рекорд-лейбл/Record label: RDS Records
Номер в каталоге/Catalogue #: CDLREC 5732011 CD
Формат/Format: Free Lossless Audio Codec (*.flac)
Качество/Quality: Lossless
Тип рипа/RIP Type: image+.cue
Продолжительность/Length: 01:02:50
Источник/Source: Собственный рип
Размер/Size: 470.6 MB

Сканы в комплекте

01 - Tu Es Foutu
02 - In-Tango
03 - Mama Mia
04 - Shock
05 - Le Dragueur
06 - Milord
07 - Vive Le Swing
08 - I'm Folle De Toi
09 - Les Fous
10 - I Was Ye-Ye Girl
11 - Le Cri Du Coeur
12 - Oui
13 - Amour Ma Passion' 2010
14 - Alchimie
15 - A Poings Fermez
16 - Tu Es La ft. Pochill
17 - Vive Le Swing (Rivaz Club Remix)
Exact Audio Copy V1.0 beta 3 from 29. August 2011

EAC extraction logfile from 20. September 2013, 21:30

In-Grid / StarHit

Used drive : ATAPI iHAS124 D Adapter: 0 ID: 2

Read mode : Secure
Utilize accurate stream : Yes
Defeat audio cache : Yes
Make use of C2 pointers : No

Read offset correction : 6
Overread into Lead-In and Lead-Out : No
Fill up missing offset samples with silence : Yes
Delete leading and trailing silent blocks : No
Null samples used in CRC calculations : Yes
Used interface : Installed external ASPI interface

Used output format : User Defined Encoder
Selected bitrate : 1024 kBit/s
Quality : High
Add ID3 tag : No
Command line compressor : C:\Program Files (x86)\Exact Audio Copy\FLAC\FLAC.EXE
Additional command line options : -6 -V -T "ARTIST=%artist%" -T "TITLE=%title%" -T "ALBUM=%albumtitle%" -T "DATE=%year%" -T "TRACKNUMBER=%tracknr%" -T "GENRE=%genre%" -T "COMMENT=%comment%" -T "BAND=%albuminterpret%" -T "ALBUMARTIST=%albuminterpret%" -T "COMPOSER=%composer%" %haslyrics%--tag-from-file=LYRICS="%lyricsfile%"%haslyrics% -T "DISCNUMBER=%cdnumber%" -T "TOTALDISCS=%totalcds%" -T "TOTALTRACKS=%numtracks%" %hascover%--picture="%coverfile%"%hascover% %source% -o %dest%


TOC of the extracted CD

Track | Start | Length | Start sector | End sector
---------------------------------------------------------
1 | 0:00.00 | 3:40.44 | 0 | 16543
2 | 3:40.44 | 3:36.50 | 16544 | 32793
3 | 7:17.19 | 3:42.47 | 32794 | 49490
4 | 10:59.66 | 4:51.62 | 49491 | 71377
5 | 15:51.53 | 3:15.41 | 71378 | 86043
6 | 19:07.19 | 3:31.35 | 86044 | 101903
7 | 22:38.54 | 3:21.17 | 101904 | 116995
8 | 25:59.71 | 3:30.21 | 116996 | 132766
9 | 29:30.17 | 3:33.46 | 132767 | 148787
10 | 33:03.63 | 3:57.25 | 148788 | 166587
11 | 37:01.13 | 3:49.06 | 166588 | 183768
12 | 40:50.19 | 3:08.48 | 183769 | 197916
13 | 43:58.67 | 3:25.21 | 197917 | 213312
14 | 47:24.13 | 3:41.12 | 213313 | 229899
15 | 51:05.25 | 3:07.19 | 229900 | 243943
16 | 54:12.44 | 3:28.38 | 243944 | 259581
17 | 57:41.07 | 5:09.07 | 259582 | 282763


Range status and errors

Selected range

Filename C:\mm\In-Grid\2011 - StarHit. In-Grid\In-Grid - StarHit.wav

Peak level 100.0 %
Extraction speed 9.4 X
Range quality 99.9 %
Test CRC 9CD20431
Copy CRC 9CD20431
Copy OK

No errors occurred


AccurateRip summary

Track 1 not present in database
Track 2 not present in database
Track 3 not present in database
Track 4 not present in database
Track 5 not present in database
Track 6 not present in database
Track 7 not present in database
Track 8 not present in database
Track 9 not present in database
Track 10 not present in database
Track 11 not present in database
Track 12 not present in database
Track 13 not present in database
Track 14 not present in database
Track 15 not present in database
Track 16 not present in database
Track 17 not present in database

None of the tracks are present in the AccurateRip database

End of status report

---- CUETools DB Plugin V2.1.3

[CTDB TOCID: GqCGIQctm_4iOfccnlo2EDrZSPU-] found, Submit result: already submitted
[33e1a8e3] (1/1) Accurately ripped
AUDIOCHECKER v2.0 beta (build 457) - by Dester - [email protected]
~~~~~~~~~~~~~~~~~~~~~~~~~~~~~~~~~~
-=== НЕ РЕДАКТИРУЙТЕ ЭТОТ ФАЙЛ! ===-

Путь: ...\2011 - StarHit. In-Grid

1 -=- In-Grid - StarHit.flac -=- CDDA (99%)

96252628
Для просмотра содержимого вам необходимо Войти или Зарегистрироваться.​
 
Последнее редактирование:

sergych

Ёшкин кот
VIP
Сообщения
2,246
Реакции
8,401
2010 - Passion



Исполнитель/Artist: In-Grid
Альбом/Album: Passion
Год/Year: 2010
Жанр/Genre: Pop, dance pop
Страна/Country: Италия
Рекорд-лейбл/Record label: X-Energy Records
Номер в каталоге/Catalogue #: X 33010.09 CD
Формат/Format: Free Lossless Audio Codec (*.flac)
Качество/Quality: Lossless
Тип рипа/RIP Type: image+.cue
Продолжительность/Length: 00:51:22
Источник/Source: Собственный рип
Размер/Size: 439.5 MB

Сканы в комплекте

01 - Les Fous
02 - Le Dragueur
03 - Amour Ma Passion
04 - Chaos
05 - Movie Star
06 - Jalousie
07 - Les Jeux Sont Faits
08 - Sweet Desire
09 - Vive Le Swing
10 - C'est L'amour
11 - Le Cri Du Coeur
12 - Tout Pour Toi
13 - Papillonne Sur Moi
14 - A Ma Facon
15 - Tu Es La (feat. Pochill)
Exact Audio Copy V1.0 beta 3 from 29. August 2011

EAC extraction logfile from 20. September 2013, 19:29

In-Grid / Passion

Used drive : ATAPI iHAS124 D Adapter: 0 ID: 2

Read mode : Secure
Utilize accurate stream : Yes
Defeat audio cache : Yes
Make use of C2 pointers : No

Read offset correction : 6
Overread into Lead-In and Lead-Out : No
Fill up missing offset samples with silence : Yes
Delete leading and trailing silent blocks : No
Null samples used in CRC calculations : Yes
Used interface : Installed external ASPI interface

Used output format : User Defined Encoder
Selected bitrate : 1024 kBit/s
Quality : High
Add ID3 tag : No
Command line compressor : C:\Program Files (x86)\Exact Audio Copy\FLAC\FLAC.EXE
Additional command line options : -6 -V -T "ARTIST=%artist%" -T "TITLE=%title%" -T "ALBUM=%albumtitle%" -T "DATE=%year%" -T "TRACKNUMBER=%tracknr%" -T "GENRE=%genre%" -T "COMMENT=%comment%" -T "BAND=%albuminterpret%" -T "ALBUMARTIST=%albuminterpret%" -T "COMPOSER=%composer%" %haslyrics%--tag-from-file=LYRICS="%lyricsfile%"%haslyrics% -T "DISCNUMBER=%cdnumber%" -T "TOTALDISCS=%totalcds%" -T "TOTALTRACKS=%numtracks%" %hascover%--picture="%coverfile%"%hascover% %source% -o %dest%


TOC of the extracted CD

Track | Start | Length | Start sector | End sector
---------------------------------------------------------
1 | 0:00.00 | 3:31.46 | 0 | 15870
2 | 3:31.46 | 3:13.41 | 15871 | 30386
3 | 6:45.12 | 3:23.35 | 30387 | 45646
4 | 10:08.47 | 3:20.46 | 45647 | 60692
5 | 13:29.18 | 3:48.61 | 60693 | 77853
6 | 17:18.04 | 3:16.66 | 77854 | 92619
7 | 20:34.70 | 3:21.38 | 92620 | 107732
8 | 23:56.33 | 3:27.04 | 107733 | 123261
9 | 27:23.37 | 3:19.17 | 123262 | 138203
10 | 30:42.54 | 3:22.55 | 138204 | 153408
11 | 34:05.34 | 3:47.06 | 153409 | 170439
12 | 37:52.40 | 3:15.59 | 170440 | 185123
13 | 41:08.24 | 3:30.43 | 185124 | 200916
14 | 44:38.67 | 3:16.64 | 200917 | 215680
15 | 47:55.56 | 3:26.38 | 215681 | 231168


Range status and errors

Selected range

Filename C:\mm\In-Grid\2010 - Passion\In-Grid - Passion.wav

Peak level 97.7 %
Extraction speed 8.7 X
Range quality 99.9 %
Test CRC D7D9959C
Copy CRC D7D9959C
Copy OK

No errors occurred


AccurateRip summary

Track 1 not present in database
Track 2 not present in database
Track 3 not present in database
Track 4 not present in database
Track 5 not present in database
Track 6 not present in database
Track 7 not present in database
Track 8 not present in database
Track 9 not present in database
Track 10 not present in database
Track 11 not present in database
Track 12 not present in database
Track 13 not present in database
Track 14 not present in database
Track 15 not present in database

None of the tracks are present in the AccurateRip database

End of status report
AUDIOCHECKER v2.0 beta (build 457) - by Dester - [email protected]
~~~~~~~~~~~~~~~~~~~~~~~~~~~~~~~~~~
-=== НЕ РЕДАКТИРУЙТЕ ЭТОТ ФАЙЛ! ===-

Путь: ...\2010 - Passion

1 -=- In-Grid - Passion.flac -=- CDDA (99%)

59731828
Для просмотра содержимого вам необходимо Войти или Зарегистрироваться.​
 
Последнее редактирование:

sergych

Ёшкин кот
VIP
Сообщения
2,246
Реакции
8,401
2010 - Passion (Vive Le Swing Edition)



Исполнитель/Artist: In-Grid
Альбом/Album: Passion (Vive Le Swing Edition)
Год/Year: 2010
Жанр/Genre: Pop, dance pop
Страна/Country: Россия
Рекорд-лейбл/Record label: RDS Records
Номер в каталоге/Catalogue #: CDLREC 5572010 CD
Формат/Format: Free Lossless Audio Codec (*.flac)
Качество/Quality: Lossless
Тип рипа/RIP Type: image+.cue
Продолжительность/Length: 01:03:49
Источник/Source: Собственный рип
Размер/Size: 506.6 MB

Сканы в комплекте

01 - Les Fous
02 - Le Dragueur
03 - Amour Ma Passion
04 - Movie Star
05 - Jalousie
06 - Les Jeux Sont Faits
07 - Sweet Desire
08 - Vive Le Swing
09 - C'est L'amour
10 - Le Cri Du Coeur
11 - Tout Pour Toi
12 - Papillonne Sur Moi
13 - A Ma Facon
14 - Tu Es La (feat. Pochill)

Bonus Tracks:
15 - I Was A Ye Ye Girl (Feat. Doing Time)
16 - Chaos
17 - Amour Ma Passion (2010 Radio Edit)
18 - Vive Le Swing (Rivaz Club Remix)
Exact Audio Copy V1.0 beta 3 from 29. August 2011

EAC extraction logfile from 20. September 2013, 20:51

In-Grid / Passion (Vive Le Swing Edition)

Used drive : ATAPI iHAS124 D Adapter: 0 ID: 2

Read mode : Secure
Utilize accurate stream : Yes
Defeat audio cache : Yes
Make use of C2 pointers : No

Read offset correction : 6
Overread into Lead-In and Lead-Out : No
Fill up missing offset samples with silence : Yes
Delete leading and trailing silent blocks : No
Null samples used in CRC calculations : Yes
Used interface : Installed external ASPI interface

Used output format : User Defined Encoder
Selected bitrate : 1024 kBit/s
Quality : High
Add ID3 tag : No
Command line compressor : C:\Program Files (x86)\Exact Audio Copy\FLAC\FLAC.EXE
Additional command line options : -6 -V -T "ARTIST=%artist%" -T "TITLE=%title%" -T "ALBUM=%albumtitle%" -T "DATE=%year%" -T "TRACKNUMBER=%tracknr%" -T "GENRE=%genre%" -T "COMMENT=%comment%" -T "BAND=%albuminterpret%" -T "ALBUMARTIST=%albuminterpret%" -T "COMPOSER=%composer%" %haslyrics%--tag-from-file=LYRICS="%lyricsfile%"%haslyrics% -T "DISCNUMBER=%cdnumber%" -T "TOTALDISCS=%totalcds%" -T "TOTALTRACKS=%numtracks%" %hascover%--picture="%coverfile%"%hascover% %source% -o %dest%


TOC of the extracted CD

Track | Start | Length | Start sector | End sector
---------------------------------------------------------
1 | 0:00.00 | 3:31.46 | 0 | 15870
2 | 3:31.46 | 3:13.41 | 15871 | 30386
3 | 6:45.12 | 3:23.35 | 30387 | 45646
4 | 10:08.47 | 3:48.61 | 45647 | 62807
5 | 13:57.33 | 3:16.66 | 62808 | 77573
6 | 17:14.24 | 3:21.38 | 77574 | 92686
7 | 20:35.62 | 3:27.04 | 92687 | 108215
8 | 24:02.66 | 3:19.17 | 108216 | 123157
9 | 27:22.08 | 3:22.55 | 123158 | 138362
10 | 30:44.63 | 3:47.06 | 138363 | 155393
11 | 34:31.69 | 3:15.59 | 155394 | 170077
12 | 37:47.53 | 3:30.43 | 170078 | 185870
13 | 41:18.21 | 3:16.64 | 185871 | 200634
14 | 44:35.10 | 3:26.38 | 200635 | 216122
15 | 48:01.48 | 3:55.25 | 216123 | 233772
16 | 51:56.73 | 3:20.46 | 233773 | 248818
17 | 55:17.44 | 3:23.21 | 248819 | 264064
18 | 58:40.65 | 5:09.07 | 264065 | 287246
19 | 66:21.72 | 10:30.08 | 298647 | 345904


Range status and errors

Selected range

Filename C:\mm\In-Grid\2010 - Passion (Vive Le Swing Edition)\In-Grid - Passion (Vive Le Swing Edition).wav

Peak level 100.0 %
Extraction speed 3.6 X
Range quality 99.9 %
Test CRC 0E03F970
Copy CRC 0E03F970
Copy OK

No errors occurred


AccurateRip summary

Track 1 not present in database
Track 2 not present in database
Track 3 not present in database
Track 4 not present in database
Track 5 not present in database
Track 6 not present in database
Track 7 not present in database
Track 8 not present in database
Track 9 not present in database
Track 10 not present in database
Track 11 not present in database
Track 12 not present in database
Track 13 not present in database
Track 14 not present in database
Track 15 not present in database
Track 16 not present in database
Track 17 not present in database
Track 18 not present in database

None of the tracks are present in the AccurateRip database

End of status report
AUDIOCHECKER v2.0 beta (build 457) - by Dester - [email protected]
~~~~~~~~~~~~~~~~~~~~~~~~~~~~~~~~~~
-=== НЕ РЕДАКТИРУЙТЕ ЭТОТ ФАЙЛ! ===-

Путь: ...\2010 - Passion (Vive Le Swing Edition)

1 -=- In-Grid - Passion (Vive Le Swing Edition).flac -=- CDDA (99%)

116775892
Для просмотра содержимого вам необходимо Войти или Зарегистрироваться.​
 
Последнее редактирование:

sergych

Ёшкин кот
VIP
Сообщения
2,246
Реакции
8,401
2004 - Chilling with In-Grid. La Vie En Rose



Исполнитель/Artist: In-Grid
Альбом/Album: Chilling with In-Grid. La Vie En Rose
Год/Year: 2004
Жанр/Genre: Pop, chanson
Страна/Country: Германия
Рекорд-лейбл/Record label: ZYX Music
Номер в каталоге/Catalogue #: ZYX 20705-2
Формат/Format: Free Lossless Audio Codec (*.flac)
Качество/Quality: Lossless
Тип рипа/RIP Type: tracks+.cue
Продолжительность/Length: 00:51:30
Источник/Source: Собственный рип
Размер/Size: 366.4 MB

Сканы в комплекте

01 - Un Beau Roman (Un Belle Historie)
02 - Les Champs Elysees
03 - Chanson D'amour
04 - Et Maintenant
05 - Non Je Ne Regrette Rien
06 - La Mer
07 - La Vie En Rose
08 - Les Feuilles Mortes
09 - Ne Me Quittes Pas
10 - Un Homme Et Une Femme
11 - Milord
12 - Accordeonist
13 - Milord (Sky Dreamer Remix)


Exact Audio Copy V1.0 beta 3 from 29. August 2011

EAC extraction logfile from 3. October 2013, 16:25

In-Grid / La Vie En Rose

Used drive : HL-DT-STDVDRAM GH22NS50 Adapter: 2 ID: 1

Read mode : Secure
Utilize accurate stream : Yes
Defeat audio cache : Yes
Make use of C2 pointers : No

Read offset correction : 667
Overread into Lead-In and Lead-Out : No
Fill up missing offset samples with silence : Yes
Delete leading and trailing silent blocks : No
Null samples used in CRC calculations : Yes
Used interface : Native Win32 interface for Win NT & 2000
Gap handling : Appended to previous track

Used output format : User Defined Encoder
Selected bitrate : 1024 kBit/s
Quality : High
Add ID3 tag : No
Command line compressor : C:\MMProgram\Exact Audio Copy\FLAC\FLAC.EXE
Additional command line options : -6 -V -T "ARTIST=%artist%" -T "TITLE=%title%" -T "ALBUM=%albumtitle%" -T "DATE=%year%" -T "TRACKNUMBER=%tracknr%" -T "GENRE=%genre%" -T "COMMENT=%comment%" -T "BAND=%albuminterpret%" -T "ALBUMARTIST=%albuminterpret%" -T "COMPOSER=%composer%" %haslyrics%--tag-from-file=LYRICS="%lyricsfile%"%haslyrics% -T "DISCNUMBER=%cdnumber%" -T "TOTALDISCS=%totalcds%" -T "TOTALTRACKS=%numtracks%" %hascover%--picture="%coverfile%"%hascover% %source% -o %dest%


TOC of the extracted CD

Track | Start | Length | Start sector | End sector
---------------------------------------------------------
1 | 0:00.00 | 4:05.10 | 0 | 18384
2 | 4:05.10 | 3:53.36 | 18385 | 35895
3 | 7:58.46 | 3:25.00 | 35896 | 51270
4 | 11:23.46 | 4:20.34 | 51271 | 70804
5 | 15:44.05 | 4:19.50 | 70805 | 90279
6 | 20:03.55 | 3:57.16 | 90280 | 108070
7 | 24:00.71 | 3:35.42 | 108071 | 124237
8 | 27:36.38 | 4:04.39 | 124238 | 142576
9 | 31:41.02 | 3:59.00 | 142577 | 160501
10 | 35:40.02 | 4:06.27 | 160502 | 178978
11 | 39:46.29 | 4:03.25 | 178979 | 197228
12 | 43:49.54 | 4:19.41 | 197229 | 216694
13 | 48:09.20 | 3:21.36 | 216695 | 231805


Track 1

Filename D:\mm\In-Grid\2004 - La Vie En Rose\01 - Un beau roman (Une belle histoire).wav

Pre-gap length 0:00:02.00

Peak level 97.7 %
Extraction speed 1.0 X
Track quality 100.0 %
Test CRC 94B623BB
Copy CRC 94B623BB
Cannot be verified as accurate (confidence 2) [6BFA4BE5], AccurateRip returned [D924B607] (AR v2)
Copy OK

Track 2

Filename D:\mm\In-Grid\2004 - La Vie En Rose\02 - Les Champs Elysees.wav

Peak level 97.7 %
Extraction speed 1.1 X
Track quality 100.0 %
Test CRC D99833D0
Copy CRC D99833D0
Cannot be verified as accurate (confidence 2) [A558D7E0], AccurateRip returned [DE6D1772] (AR v2)
Copy OK

Track 3

Filename D:\mm\In-Grid\2004 - La Vie En Rose\03 - Chanson d'amour.wav

Peak level 97.7 %
Extraction speed 1.2 X
Track quality 100.0 %
Test CRC F77DB9FC
Copy CRC F77DB9FC
Cannot be verified as accurate (confidence 2) [D1D75311], AccurateRip returned [862F7B9D] (AR v2)
Copy OK

Track 4

Filename D:\mm\In-Grid\2004 - La Vie En Rose\04 - Et maintenant.wav

Peak level 97.7 %
Extraction speed 1.3 X
Track quality 100.0 %
Test CRC 287C3830
Copy CRC 287C3830
Cannot be verified as accurate (confidence 2) [3568830C], AccurateRip returned [1FCBAA0F] (AR v2)
Copy OK

Track 5

Filename D:\mm\In-Grid\2004 - La Vie En Rose\05 - Non je ne regrette rien.wav

Peak level 97.7 %
Extraction speed 1.4 X
Track quality 100.0 %
Test CRC 793D3234
Copy CRC 793D3234
Cannot be verified as accurate (confidence 2) [0EAAED6E], AccurateRip returned [BE774F34] (AR v2)
Copy OK

Track 6

Filename D:\mm\In-Grid\2004 - La Vie En Rose\06 - La Mer.wav

Peak level 97.7 %
Extraction speed 1.5 X
Track quality 100.0 %
Test CRC 7453C29D
Copy CRC 7453C29D
Cannot be verified as accurate (confidence 2) [9348E92F], AccurateRip returned [31797F7A] (AR v2)
Copy OK

Track 7

Filename D:\mm\In-Grid\2004 - La Vie En Rose\07 - La Vie en rose.wav

Peak level 97.7 %
Extraction speed 0.2 X
Track quality 100.0 %
Test CRC 2B479CFD
Copy CRC 2B479CFD
Cannot be verified as accurate (confidence 2) [86D1E0A4], AccurateRip returned [6871DFF8] (AR v2)
Copy OK

Track 8

Filename D:\mm\In-Grid\2004 - La Vie En Rose\08 - Les Feuilles mortes.wav

Peak level 97.7 %
Extraction speed 1.9 X
Track quality 100.0 %
Test CRC 8220C507
Copy CRC 8220C507
Cannot be verified as accurate (confidence 2) [F166F8C5], AccurateRip returned [288925D0] (AR v2)
Copy OK

Track 9

Filename D:\mm\In-Grid\2004 - La Vie En Rose\09 - Ne me quitte pas.wav

Peak level 97.7 %
Extraction speed 2.0 X
Track quality 100.0 %
Test CRC 545E646E
Copy CRC 545E646E
Cannot be verified as accurate (confidence 2) [CEAE30C4], AccurateRip returned [22F43A54] (AR v2)
Copy OK

Track 10

Filename D:\mm\In-Grid\2004 - La Vie En Rose\10 - Un homme et une femme.wav

Peak level 97.7 %
Extraction speed 2.1 X
Track quality 100.0 %
Test CRC C92C501C
Copy CRC C92C501C
Cannot be verified as accurate (confidence 2) [FD1D6FAF], AccurateRip returned [B8F29900] (AR v2)
Copy OK

Track 11

Filename D:\mm\In-Grid\2004 - La Vie En Rose\11 - Milord.wav

Peak level 97.8 %
Extraction speed 1.9 X
Track quality 99.9 %
Test CRC 7A93B62A
Copy CRC 7A93B62A
Cannot be verified as accurate (confidence 2) [9A750969], AccurateRip returned [AD385646] (AR v2)
Copy OK

Track 12

Filename D:\mm\In-Grid\2004 - La Vie En Rose\12 - Accordeoniste.wav

Peak level 97.7 %
Extraction speed 2.2 X
Track quality 100.0 %
Test CRC 4B56C2CE
Copy CRC 4B56C2CE
Cannot be verified as accurate (confidence 2) [4FABC168], AccurateRip returned [D6A9E41B] (AR v2)
Copy OK

Track 13

Filename D:\mm\In-Grid\2004 - La Vie En Rose\13 - Milord (Sky Dreamer Remix).wav

Peak level 96.6 %
Extraction speed 2.3 X
Track quality 100.0 %
Test CRC CA015B59
Copy CRC CA015B59
Cannot be verified as accurate (confidence 2) [4D30C472], AccurateRip returned [4DA1B444] (AR v2)
Copy OK


No tracks could be verified as accurate
You may have a different pressing from the one(s) in the database

No errors occurred

End of status report
AUDIOCHECKER v2.0 beta (build 457) - by Dester - [email protected]
~~~~~~~~~~~~~~~~~~~~~~~~~~~~~~~~~~
-=== НЕ РЕДАКТИРУЙТЕ ЭТОТ ФАЙЛ! ===-

Путь: ...\2004 - La Vie En Rose

01 -=- 01 - Un beau roman (Une belle histoire).flac -=- CDDA (100%)
02 -=- 02 - Les Champs Elysees.flac -=- CDDA (100%)
03 -=- 03 - Chanson d'amour.flac -=- CDDA (100%)
04 -=- 04 - Et maintenant.flac -=- CDDA (100%)
05 -=- 05 - Non je ne regrette rien.flac -=- CDDA (100%)
06 -=- 06 - La Mer.flac -=- CDDA (99%)
07 -=- 07 - La Vie en rose.flac -=- CDDA (100%)
08 -=- 08 - Les Feuilles mortes.flac -=- CDDA (100%)
09 -=- 09 - Ne me quitte pas.flac -=- CDDA (99%)
10 -=- 10 - Un homme et une femme.flac -=- CDDA (100%)
11 -=- 11 - Milord.flac -=- CDDA (100%)
12 -=- 12 - Accordeoniste.flac -=- CDDA (100%)
13 -=- 13 - Milord (Sky Dreamer Remix).flac -=- CDDA (100%)

Сводка 99,85% CDDA

148872004
Для просмотра содержимого вам необходимо Войти или Зарегистрироваться.​
 
Последнее редактирование:

sergych

Ёшкин кот
VIP
Сообщения
2,246
Реакции
8,401
2010 - Vive Le Swing {Maxi Single}



Исполнитель/Artist: In-Grid
Альбом/Album: Vive Le Swing {Maxi Single}
Год/Year: 2010
Жанр/Genre: Pop, swing
Страна/Country: Германия
Рекорд-лейбл/Record label: ZYX Music
Номер в каталоге/Catalogue #: ZYX 1049-8 / 090204787203
Формат/Format: Free Lossless Audio Codec (*.flac)
Качество/Quality: Lossless
Тип рипа/RIP Type: tracks+.cue
Продолжительность/Length: 00:27:25
Источник/Source: Собственный рип
Размер/Size: 237.4 MB

Сканы в комплекте

01 - Vive Le Swing (Rivaz Radio Edit)
02 - Vive Le Swing (Gabin Brassy Radio Edit)
03 - Vive Le Swing (Rivaz Club Remix)
04 - Vive Le Swing (Gabin Brassy Remix)
05 - Vive Le Swing (Suonho ReShaked)
06 - Vive Le Swing (Be Bop Bonus Track)
07 - Vive Le Swing (Gabin Instrumental)


Exact Audio Copy V1.0 beta 3 from 29. August 2011

EAC extraction logfile from 3. October 2013, 14:28

In-Grid / Vive Le Swing

Used drive : HL-DT-STDVDRAM GH22NS50 Adapter: 2 ID: 1

Read mode : Secure
Utilize accurate stream : Yes
Defeat audio cache : Yes
Make use of C2 pointers : No

Read offset correction : 667
Overread into Lead-In and Lead-Out : No
Fill up missing offset samples with silence : Yes
Delete leading and trailing silent blocks : No
Null samples used in CRC calculations : Yes
Used interface : Native Win32 interface for Win NT & 2000
Gap handling : Appended to previous track

Used output format : User Defined Encoder
Selected bitrate : 1024 kBit/s
Quality : High
Add ID3 tag : No
Command line compressor : C:\MMProgram\Exact Audio Copy\FLAC\FLAC.EXE
Additional command line options : -6 -V -T "ARTIST=%artist%" -T "TITLE=%title%" -T "ALBUM=%albumtitle%" -T "DATE=%year%" -T "TRACKNUMBER=%tracknr%" -T "GENRE=%genre%" -T "COMMENT=%comment%" -T "BAND=%albuminterpret%" -T "ALBUMARTIST=%albuminterpret%" -T "COMPOSER=%composer%" %haslyrics%--tag-from-file=LYRICS="%lyricsfile%"%haslyrics% -T "DISCNUMBER=%cdnumber%" -T "TOTALDISCS=%totalcds%" -T "TOTALTRACKS=%numtracks%" %hascover%--picture="%coverfile%"%hascover% %source% -o %dest%


TOC of the extracted CD

Track | Start | Length | Start sector | End sector
---------------------------------------------------------
1 | 0:00.00 | 3:20.01 | 0 | 15000
2 | 3:20.01 | 3:21.45 | 15001 | 30120
3 | 6:41.46 | 5:11.09 | 30121 | 53454
4 | 11:52.55 | 4:26.56 | 53455 | 73460
5 | 16:19.36 | 5:00.73 | 73461 | 96033
6 | 21:20.34 | 1:53.06 | 96034 | 104514
7 | 23:13.40 | 4:24.23 | 104515 | 124337


Track 1

Filename D:\mm\In-Grid\2010 - Vive Le Swing (Maxi Single)\01 - Vive Le Swing (Rivaz Radio Edit).wav

Pre-gap length 0:00:02.00

Peak level 98.8 %
Extraction speed 1.0 X
Track quality 100.0 %
Test CRC 48EDA78B
Copy CRC 48EDA78B
Accurately ripped (confidence 1) [D1646048] (AR v1)
Copy OK

Track 2

Filename D:\mm\In-Grid\2010 - Vive Le Swing (Maxi Single)\02 - Vive Le Swing (Gabin Brassy Radio Edit).wav

Pre-gap length 0:00:02.00

Peak level 98.8 %
Extraction speed 1.1 X
Track quality 100.0 %
Test CRC 1112BCC2
Copy CRC 1112BCC2
Accurately ripped (confidence 1) [B5CD9CD0] (AR v1)
Copy OK

Track 3

Filename D:\mm\In-Grid\2010 - Vive Le Swing (Maxi Single)\03 - Vive Le Swing (Rivaz Club Remix).wav

Pre-gap length 0:00:02.00

Peak level 98.8 %
Extraction speed 1.3 X
Track quality 100.0 %
Test CRC 9CBE0C4D
Copy CRC 9CBE0C4D
Accurately ripped (confidence 1) [BCD6E3AF] (AR v1)
Copy OK

Track 4

Filename D:\mm\In-Grid\2010 - Vive Le Swing (Maxi Single)\04 - Vive Le Swing (Gabin Brassy Remix).wav

Pre-gap length 0:00:02.00

Peak level 98.8 %
Extraction speed 1.4 X
Track quality 100.0 %
Test CRC 3BF8B1FC
Copy CRC 3BF8B1FC
Accurately ripped (confidence 1) [4F41DB3C] (AR v1)
Copy OK

Track 5

Filename D:\mm\In-Grid\2010 - Vive Le Swing (Maxi Single)\05 - Vive Le Swing (Suonho ReShaked).wav

Pre-gap length 0:00:02.00

Peak level 98.8 %
Extraction speed 1.5 X
Track quality 100.0 %
Test CRC C63C753A
Copy CRC C63C753A
Accurately ripped (confidence 1) [9DD2F130] (AR v1)
Copy OK

Track 6

Filename D:\mm\In-Grid\2010 - Vive Le Swing (Maxi Single)\06 - Vive Le Swing (Be Bop Bonus Track).wav

Pre-gap length 0:00:02.00

Peak level 98.8 %
Extraction speed 1.3 X
Track quality 100.0 %
Test CRC 4A2B4C06
Copy CRC 4A2B4C06
Accurately ripped (confidence 1) [EA0AF855] (AR v1)
Copy OK

Track 7

Filename D:\mm\In-Grid\2010 - Vive Le Swing (Maxi Single)\07 - Vive Le Swing (Gabin Instrumental).wav

Pre-gap length 0:00:02.00

Peak level 98.8 %
Extraction speed 0.2 X
Track quality 99.9 %
Test CRC FAFA4F4F
Copy CRC FAFA4F4F
Accurately ripped (confidence 1) [2E6B3BE9] (AR v1)
Copy OK


All tracks accurately ripped

No errors occurred

End of status report
AUDIOCHECKER v2.0 beta (build 457) - by Dester - [email protected]
~~~~~~~~~~~~~~~~~~~~~~~~~~~~~~~~~~
-=== НЕ РЕДАКТИРУЙТЕ ЭТОТ ФАЙЛ! ===-

Путь: ...\2010 - Vive Le Swing (Maxi Single)

1 -=- 01 - Vive Le Swing (Rivaz Radio Edit).flac -=- CDDA (100%)
2 -=- 02 - Vive Le Swing (Gabin Brassy Radio Edit).flac -=- CDDA (100%)
3 -=- 03 - Vive Le Swing (Rivaz Club Remix).flac -=- CDDA (99%)
4 -=- 04 - Vive Le Swing (Gabin Brassy Remix).flac -=- CDDA (100%)
5 -=- 05 - Vive Le Swing (Suonho ReShaked).flac -=- CDDA (100%)
6 -=- 06 - Vive Le Swing (Be Bop Bonus Track).flac -=- CDDA (100%)
7 -=- 07 - Vive Le Swing (Gabin Instrumental).flac -=- CDDA (100%)

Сводка 99,86% CDDA

201297988
Для просмотра содержимого вам необходимо Войти или Зарегистрироваться.​
 
Последнее редактирование:

sergych

Ёшкин кот
VIP
Сообщения
2,246
Реакции
8,401
2010 - Lounge Musique



Исполнитель/Artist: In-Grid
Альбом/Album: Lounge Musique
Год/Year: 2010
Жанр/Genre: Pop, dance pop, chanson, ballads
Страна/Country: Россия
Рекорд-лейбл/Record label: Soundelux Records / RDS
Номер в каталоге/Catalogue #: CDLREC 558 2010 CD
Формат/Format: Free Lossless Audio Codec (*.flac)
Качество/Quality: Lossless
Тип рипа/RIP Type: tracks+.cue
Продолжительность/Length: 00:50:56
Источник/Source: Собственный рип
Размер/Size: 408.8 MB

Сканы в комплекте

01 - Comment Te Dire Adieu
02 - Les Enfants Du Piree
03 - Tu Veux Ou Tu Veux Pas
04 - Etienne
05 - Mais Non Mais Oui
06 - C'est Si Bon
07 - Alchimie
08 - Sympathique
09 - Tentacion Al Hombre
10 - C'est La Ouate
11 - Quiero Vivir
12 - Ange Ou Diable
13 - L'ete Indien
14 - Papillonne Sur Moi (Fab Samperi Remix)
Exact Audio Copy V1.0 beta 3 from 29. August 2011

EAC extraction logfile from 5. October 2013, 11:20

In‐Grid / Lounge musique

Used drive : ATAPI iHAS124 D Adapter: 0 ID: 2

Read mode : Secure
Utilize accurate stream : Yes
Defeat audio cache : Yes
Make use of C2 pointers : No

Read offset correction : 6
Overread into Lead-In and Lead-Out : No
Fill up missing offset samples with silence : Yes
Delete leading and trailing silent blocks : No
Null samples used in CRC calculations : Yes
Used interface : Installed external ASPI interface
Gap handling : Appended to previous track

Used output format : User Defined Encoder
Selected bitrate : 1024 kBit/s
Quality : High
Add ID3 tag : No
Command line compressor : C:\Program Files (x86)\Exact Audio Copy\Flac\flac.exe
Additional command line options : -6 -V -T "ARTIST=%artist%" -T "TITLE=%title%" -T "ALBUM=%albumtitle%" -T "DATE=%year%" -T "TRACKNUMBER=%tracknr%" -T "GENRE=%genre%" -T "COMMENT=%comment%" -T "BAND=%albuminterpret%" -T "COMPOSER=%composer%" %haslyrics%--tag-from-file=LYRICS="%lyricsfile%"%haslyrics% -T "DISCNUMBER=%cdnumber%" -T "TOTALDISCS=%totalcds%" -T "TOTALTRACKS=%numtracks%" %hascover%--picture="%coverfile%"%hascover% %source% -o %dest%


TOC of the extracted CD

Track | Start | Length | Start sector | End sector
---------------------------------------------------------
1 | 0:00.00 | 3:44.67 | 0 | 16866
2 | 3:44.67 | 3:50.52 | 16867 | 34168
3 | 7:35.44 | 2:43.09 | 34169 | 46402
4 | 10:18.53 | 3:41.52 | 46403 | 63029
5 | 14:00.30 | 3:21.10 | 63030 | 78114
6 | 17:21.40 | 3:38.64 | 78115 | 94528
7 | 21:00.29 | 3:41.12 | 94529 | 111115
8 | 24:41.41 | 3:28.53 | 111116 | 126768
9 | 28:10.19 | 3:36.53 | 126769 | 143021
10 | 31:46.72 | 3:18.43 | 143022 | 157914
11 | 35:05.40 | 3:34.05 | 157915 | 173969
12 | 38:39.45 | 3:49.60 | 173970 | 191204
13 | 42:29.30 | 4:24.48 | 191205 | 211052
14 | 46:54.03 | 4:28.16 | 211053 | 231168


Track 1

Filename C:\mm\In-Grid\2010 - Lounge Musique\01 - Comment te dire adieu.wav

Pre-gap length 0:00:02.00

Peak level 98.8 %
Extraction speed 1.8 X
Track quality 100.0 %
Test CRC 68A1D80C
Copy CRC 68A1D80C
Track not present in AccurateRip database
Copy OK

Track 2

Filename C:\mm\In-Grid\2010 - Lounge Musique\02 - Les enfants du Piree.wav

Pre-gap length 0:00:02.00

Peak level 98.8 %
Extraction speed 2.0 X
Track quality 100.0 %
Test CRC C90AFD0C
Copy CRC C90AFD0C
Track not present in AccurateRip database
Copy OK

Track 3

Filename C:\mm\In-Grid\2010 - Lounge Musique\03 - Tu veux ou tu veux pas.wav

Pre-gap length 0:00:02.00

Peak level 98.8 %
Extraction speed 2.1 X
Track quality 100.0 %
Test CRC 3622A36B
Copy CRC 3622A36B
Track not present in AccurateRip database
Copy OK

Track 4

Filename C:\mm\In-Grid\2010 - Lounge Musique\04 - Etienne.wav

Pre-gap length 0:00:02.00

Peak level 98.8 %
Extraction speed 2.3 X
Track quality 100.0 %
Test CRC 2A3FE183
Copy CRC 2A3FE183
Track not present in AccurateRip database
Copy OK

Track 5

Filename C:\mm\In-Grid\2010 - Lounge Musique\05 - Mais non mais oui.wav

Pre-gap length 0:00:02.00

Peak level 98.8 %
Extraction speed 2.4 X
Track quality 100.0 %
Test CRC 4A0BA7EF
Copy CRC 4A0BA7EF
Track not present in AccurateRip database
Copy OK

Track 6

Filename C:\mm\In-Grid\2010 - Lounge Musique\06 - C'est si bon.wav

Pre-gap length 0:00:02.00

Peak level 98.8 %
Extraction speed 2.6 X
Track quality 100.0 %
Test CRC 83AAC4C0
Copy CRC 83AAC4C0
Track not present in AccurateRip database
Copy OK

Track 7

Filename C:\mm\In-Grid\2010 - Lounge Musique\07 - Alchimie.wav

Pre-gap length 0:00:02.00

Peak level 98.8 %
Extraction speed 2.7 X
Track quality 100.0 %
Test CRC B422E346
Copy CRC B422E346
Track not present in AccurateRip database
Copy OK

Track 8

Filename C:\mm\In-Grid\2010 - Lounge Musique\08 - Sympathique.wav

Pre-gap length 0:00:02.00

Peak level 98.8 %
Extraction speed 2.9 X
Track quality 100.0 %
Test CRC 0863D08B
Copy CRC 0863D08B
Track not present in AccurateRip database
Copy OK

Track 9

Filename C:\mm\In-Grid\2010 - Lounge Musique\09 - Tentacion al hombre.wav

Pre-gap length 0:00:02.00

Peak level 98.8 %
Extraction speed 3.0 X
Track quality 100.0 %
Test CRC 4AF6082F
Copy CRC 4AF6082F
Track not present in AccurateRip database
Copy OK

Track 10

Filename C:\mm\In-Grid\2010 - Lounge Musique\10 - C'est la ouate.wav

Pre-gap length 0:00:02.00

Peak level 98.8 %
Extraction speed 3.1 X
Track quality 100.0 %
Test CRC 5BD8D830
Copy CRC 5BD8D830
Track not present in AccurateRip database
Copy OK

Track 11

Filename C:\mm\In-Grid\2010 - Lounge Musique\11 - Quiero vivir.wav

Pre-gap length 0:00:02.00

Peak level 98.8 %
Extraction speed 3.2 X
Track quality 100.0 %
Test CRC 80563EAF
Copy CRC 80563EAF
Track not present in AccurateRip database
Copy OK

Track 12

Filename C:\mm\In-Grid\2010 - Lounge Musique\12 - Ange ou diable.wav

Pre-gap length 0:00:02.00

Peak level 98.8 %
Extraction speed 3.3 X
Track quality 100.0 %
Test CRC 42A04DD1
Copy CRC 42A04DD1
Track not present in AccurateRip database
Copy OK

Track 13

Filename C:\mm\In-Grid\2010 - Lounge Musique\13 - L'ete indien.wav

Pre-gap length 0:00:02.00

Peak level 98.8 %
Extraction speed 3.5 X
Track quality 100.0 %
Test CRC 37AEC6DF
Copy CRC 37AEC6DF
Track not present in AccurateRip database
Copy OK

Track 14

Filename C:\mm\In-Grid\2010 - Lounge Musique\14 - Papillonne sur moi (Fab Samperi remix).wav

Pre-gap length 0:00:02.00

Peak level 98.8 %
Extraction speed 3.7 X
Track quality 100.0 %
Test CRC 5AAE1976
Copy CRC 5AAE1976
Track not present in AccurateRip database
Copy OK


None of the tracks are present in the AccurateRip database

No errors occurred

End of status report
AUDIOCHECKER v2.0 beta (build 457) - by Dester - [email protected]
~~~~~~~~~~~~~~~~~~~~~~~~~~~~~~~~~~
-=== НЕ РЕДАКТИРУЙТЕ ЭТОТ ФАЙЛ! ===-

Путь: ...\2010 - Lounge Musique

01 -=- 01 - Comment te dire adieu.flac -=- CDDA (100%)
02 -=- 02 - Les enfants du Piree.flac -=- CDDA (100%)
03 -=- 03 - Tu veux ou tu veux pas.flac -=- CDDA (100%)
04 -=- 04 - Etienne.flac -=- CDDA (100%)
05 -=- 05 - Mais non mais oui.flac -=- CDDA (100%)
06 -=- 06 - C'est si bon.flac -=- CDDA (100%)
07 -=- 07 - Alchimie.flac -=- CDDA (100%)
08 -=- 08 - Sympathique.flac -=- CDDA (100%)
09 -=- 09 - Tentacion al hombre.flac -=- CDDA (100%)
10 -=- 10 - C'est la ouate.flac -=- CDDA (100%)
11 -=- 11 - Quiero vivir.flac -=- CDDA (100%)
12 -=- 12 - Ange ou diable.flac -=- CDDA (100%)
13 -=- 13 - L'ete indien.flac -=- CDDA (100%)
14 -=- 14 - Papillonne sur moi (Fab Samperi remix).flac -=- CDDA (100%)

Сводка 100,00% CDDA

47170532
Для просмотра содержимого вам необходимо Войти или Зарегистрироваться.​
 
Последнее редактирование:

sergych

Ёшкин кот
VIP
Сообщения
2,246
Реакции
8,401
2002 - Tu Es Foutu



Исполнитель/Artist: In-Grid
Альбом/Album: Tu Es Foutu (Maxi-Single)
Год/Year: 2002
Жанр/Genre: Electrotango, dance-pop, house
Страна/Country: Германия
Рекорд-лейбл/Record label: ZYX Music
Номер в каталоге/Catalogue #: GDC 2312-8
Формат/Format: Free Lossless Audio Codec (*.flac)
Качество/Quality: Lossless
Тип рипа/RIP Type: tracks+.cue
Продолжительность/Length: 00:23:08
Источник/Source: Собственный рип
Размер/Size: 177 MB

Сканы в комплекте

01 - Tu Es Foutu (Original Radio Edit)
02 - Tu Es Foutu (Original Extended)
03 - Tu Es Foutu (Harlem Hustlers Club Mix)
04 - Tu Es Foutu (Original Instrumental)
Exact Audio Copy V1.0 beta 3 from 29. August 2011

EAC extraction logfile from 9. September 2013, 11:35

In-Grid / Tu Es Foutu

Used drive : HL-DT-STDVDRAM GH22NS50 Adapter: 2 ID: 1

Read mode : Secure
Utilize accurate stream : Yes
Defeat audio cache : Yes
Make use of C2 pointers : No

Read offset correction : 667
Overread into Lead-In and Lead-Out : No
Fill up missing offset samples with silence : Yes
Delete leading and trailing silent blocks : No
Null samples used in CRC calculations : Yes
Used interface : Native Win32 interface for Win NT & 2000
Gap handling : Appended to previous track

Used output format : User Defined Encoder
Selected bitrate : 1024 kBit/s
Quality : High
Add ID3 tag : No
Command line compressor : C:\MMProgram\Exact Audio Copy\FLAC\FLAC.EXE
Additional command line options : -6 -V -T "ARTIST=%artist%" -T "TITLE=%title%" -T "ALBUM=%albumtitle%" -T "DATE=%year%" -T "TRACKNUMBER=%tracknr%" -T "GENRE=%genre%" -T "COMMENT=%comment%" -T "BAND=%albuminterpret%" -T "ALBUMARTIST=%albuminterpret%" -T "COMPOSER=%composer%" %haslyrics%--tag-from-file=LYRICS="%lyricsfile%"%haslyrics% -T "DISCNUMBER=%cdnumber%" -T "TOTALDISCS=%totalcds%" -T "TOTALTRACKS=%numtracks%" %hascover%--picture="%coverfile%"%hascover% %source% -o %dest%


TOC of the extracted CD

Track | Start | Length | Start sector | End sector
---------------------------------------------------------
1 | 0:00.00 | 3:38.57 | 0 | 16406
2 | 3:38.57 | 6:01.15 | 16407 | 43496
3 | 9:39.72 | 7:34.02 | 43497 | 77548
4 | 17:13.74 | 6:00.25 | 77549 | 104573


Track 1

Filename D:\mm\In-Grid\2002 - Tu Es Foutu (Maxi-Single)\01 - Tu Es Foutu (Original Radio Edit).wav

Pre-gap length 0:00:02.00

Peak level 100.0 %
Extraction speed 1.0 X
Track quality 99.9 %
Test CRC A55496BE
Copy CRC A55496BE
Cannot be verified as accurate (confidence 10) [BFC38861], AccurateRip returned [914D7A32] (AR v2)
Copy OK

Track 2

Filename D:\mm\In-Grid\2002 - Tu Es Foutu (Maxi-Single)\02 - Tu Es Foutu (Original Extended).wav

Pre-gap length 0:00:01.74

Peak level 99.8 %
Extraction speed 1.3 X
Track quality 99.9 %
Test CRC 3B08B632
Copy CRC 3B08B632
Cannot be verified as accurate (confidence 10) [E9CDE240], AccurateRip returned [E0AE3165] (AR v2)
Copy OK

Track 3

Filename D:\mm\In-Grid\2002 - Tu Es Foutu (Maxi-Single)\03 - Tu Es Foutu (Harlem Hustlers Club Mix).wav

Pre-gap length 0:00:02.00

Peak level 98.0 %
Extraction speed 1.6 X
Track quality 100.0 %
Test CRC 658B6C84
Copy CRC 658B6C84
Cannot be verified as accurate (confidence 10) [03F52197], AccurateRip returned [AA7E6B9D] (AR v2)
Copy OK

Track 4

Filename D:\mm\In-Grid\2002 - Tu Es Foutu (Maxi-Single)\04 - Tu Es Foutu (Original Instrumental).wav

Pre-gap length 0:00:02.00

Peak level 99.8 %
Extraction speed 1.8 X
Track quality 100.0 %
Test CRC 21543517
Copy CRC 21543517
Cannot be verified as accurate (confidence 10) [DC558BF9], AccurateRip returned [792578E5] (AR v2)
Copy OK


No tracks could be verified as accurate
You may have a different pressing from the one(s) in the database

No errors occurred

End of status report
AUDIOCHECKER v2.0 beta (build 457) - by Dester - [email protected]
~~~~~~~~~~~~~~~~~~~~~~~~~~~~~~~~~~
-=== НЕ РЕДАКТИРУЙТЕ ЭТОТ ФАЙЛ! ===-

Путь: ...\2002 - Tu Es Foutu (Maxi-Single)

1 -=- 01 - Tu Es Foutu (Original Radio Edit).flac -=- CDDA (100%)
2 -=- 02 - Tu Es Foutu (Original Extended).flac -=- CDDA (100%)
3 -=- 03 - Tu Es Foutu (Harlem Hustlers Club Mix).flac -=- CDDA (100%)
4 -=- 04 - Tu Es Foutu (Original Instrumental).flac -=- CDDA (100%)

Сводка 100,00% CDDA

191052708
Для просмотра содержимого вам необходимо Войти или Зарегистрироваться.​
 
Последнее редактирование:

sergych

Ёшкин кот
VIP
Сообщения
2,246
Реакции
8,401
2002 - Tu Es Foutu {The Mix}



Исполнитель/Artist: In Grid
Альбом/Album: Tu Es Foutu {The Mix}
Год/Year: 2002
Жанр/Genre: Electrotango, dance-pop, house
Страна/Country: Европа
Рекорд-лейбл/Record label: Virgin
Формат/Format: Free Lossless Audio Codec (*.flac)
Качество/Quality: Lossless
Тип рипа/RIP Type: image+.cue
Продолжительность/Length: 01:09:12
Источник/Source: Собственный рип
Размер/Size: 442.7 MB

Сканы в комплекте

01. Instrumental Mix [0:05:43.03]
02. Kickflip [0:06:18.59]
03. Radio Edit [0:03:29.54]
04. Mother [0:05:38.09]
05. Club Mix [0:06:48.13]
06. Gator [0:05:17.56]
07. Tranquility [0:07:46.61]
08. Extended Version [0:05:56.24]
09. Deluxe [0:04:52.44]
10. That Feeling [0:07:14.38]
11. Dj Stebz Remix [0:10:06.40]


Exact Audio Copy V1.2 from 12. August 2016

EAC extraction logfile from 22. January 2017, 1:28

In Grid / Tu Es Foutu {The Mix}

Used drive : PLEXTOR DVDR PX-716A Adapter: 1 ID: 0

Read mode : Secure
Utilize accurate stream : Yes
Defeat audio cache : Yes
Make use of C2 pointers : No

Read offset correction : 30
Overread into Lead-In and Lead-Out : No
Fill up missing offset samples with silence : Yes
Delete leading and trailing silent blocks : No
Null samples used in CRC calculations : Yes
Used interface : Native Win32 interface for Win NT & 2000

Used output format : User Defined Encoder
Selected bitrate : 1024 kBit/s
Quality : High
Add ID3 tag : No
Command line compressor : C:\Program Files (x86)\Exact Audio Copy\FLAC\FLAC.EXE
Additional command line options : -6 -V -T "ARTIST=%artist%" -T "TITLE=%title%" -T "ALBUM=%albumtitle%" -T "DATE=%year%" -T "TRACKNUMBER=%tracknr%" -T "GENRE=%genre%" -T "COMMENT=%comment%" -T "BAND=%albuminterpret%" -T "ALBUMARTIST=%albuminterpret%" -T "COMPOSER=%composer%" %haslyrics%--tag-from-file=LYRICS="%lyricsfile%"%haslyrics% -T "DISCNUMBER=%cdnumber%" -T "TOTALDISCS=%totalcds%" -T "TOTALTRACKS=%numtracks%" %hascover%--picture="%coverfile%"%hascover% %source% -o %dest%


TOC of the extracted CD

Track | Start | Length | Start sector | End sector
---------------------------------------------------------
1 | 0:00.00 | 5:43.03 | 0 | 25727
2 | 5:43.03 | 6:18.59 | 25728 | 54136
3 | 12:01.62 | 3:29.54 | 54137 | 69865
4 | 15:31.41 | 5:38.09 | 69866 | 95224
5 | 21:09.50 | 6:48.13 | 95225 | 125837
6 | 27:57.63 | 5:17.56 | 125838 | 149668
7 | 33:15.44 | 7:46.61 | 149669 | 184679
8 | 41:02.30 | 5:56.24 | 184680 | 211403
9 | 46:58.54 | 4:52.44 | 211404 | 233347
10 | 51:51.23 | 7:14.38 | 233348 | 265935
11 | 59:05.61 | 10:06.40 | 265936 | 311425


Range status and errors

Selected range

Filename C:\mm\In Grid\2002 - Tu Es Foutu {The Mix}\In Grid - Tu Es Foutu {The Mix}.wav

Peak level 100.0 %
Extraction speed 3.7 X
Range quality 99.9 %
Test CRC 8C2BB26E
Copy CRC 8C2BB26E
Copy OK

No errors occurred

AccurateRip summary
Track 1 cannot be verified as accurate (confidence 1) [A3F1BAC2], AccurateRip returned [F3B50BE1] (AR v2)
Track 2 cannot be verified as accurate (confidence 1) [444BAE93], AccurateRip returned [3CB5A14D] (AR v2)
Track 3 cannot be verified as accurate (confidence 1) [7295F9C5], AccurateRip returned [BCD716EA] (AR v2)
Track 4 cannot be verified as accurate (confidence 1) [61C5337A], AccurateRip returned [146407CE] (AR v2)
Track 5 cannot be verified as accurate (confidence 1) [382765FA], AccurateRip returned [18C00BE6] (AR v2)
Track 6 cannot be verified as accurate (confidence 1) [43AD39EF], AccurateRip returned [C8BD29CD] (AR v2)
Track 7 cannot be verified as accurate (confidence 1) [0C8CF6F4], AccurateRip returned [285A199E] (AR v2)
Track 8 cannot be verified as accurate (confidence 1) [BE9BBF7D], AccurateRip returned [B1DB6027] (AR v2)
Track 9 cannot be verified as accurate (confidence 1) [C1AEAB69], AccurateRip returned [691D2EE8] (AR v2)
Track 10 cannot be verified as accurate (confidence 1) [BC919524], AccurateRip returned [62190839] (AR v2)
Track 11 cannot be verified as accurate (confidence 1) [A685E425], AccurateRip returned [1C5A3FE3] (AR v2)
No tracks could be verified as accurate
You may have a different pressing from the one(s) in the database

End of status report

---- CUETools DB Plugin V2.1.6

[CTDB TOCID: ZqX7_ETCfhJ0sAGYIetEfcKVrdc-] found
Submit result: ZqX7_ETCfhJ0sAGYIetEfcKVrdc- has been confirmed
Track | CTDB Status
1 | (1/1) Accurately ripped
2 | (1/1) Accurately ripped
3 | (1/1) Accurately ripped
4 | (1/1) Accurately ripped
5 | (1/1) Accurately ripped
6 | (1/1) Accurately ripped
7 | (1/1) Accurately ripped
8 | (1/1) Accurately ripped
9 | (1/1) Accurately ripped
10 | (1/1) Accurately ripped
11 | (1/1) Accurately ripped
AUDIOCHECKER v2.0 beta (build 457) - by Dester - [email protected]
~~~~~~~~~~~~~~~~~~~~~~~~~~~~~~~~~~
-=== НЕ РЕДАКТИРУЙТЕ ЭТОТ ФАЙЛ! ===-

Путь: ...\2002 - Tu Es Foutu {The Mix}

1 -=- In Grid - Tu Es Foutu {The Mix}.flac -=- MPEG (95%)

65953012
Для просмотра содержимого вам необходимо Войти или Зарегистрироваться.​
 

aleks601409

New member
Сообщения
1
Реакции
0
2003 - Rendez-Vous (2CD's)



Исполнитель/Artist: In-Grid
Альбом/Album: Rendez-Vous (2CD's)
Год/Year: 2003
Жанр/Genre: Europop, Eurodance
Страна/Country: Германия
Рекорд-лейбл/Record label: ZYX Music
Номер в каталоге/Catalogue #: 20646-2
Формат/Format: Free Lossless Audio Codec (*.flac)
Качество/Quality: Lossless
Тип рипа/RIP Type: tracks+.cue
Продолжительность/Length: 01:13:44
Источник/Source: Собственный рип
Размер/Size: 584.6 MB


Сканы в комплекте

CD1
01 - In-Tango
02 - Tu Es Foutu
03 - Mais La Nuit ... Il Dort! (The Night...He sleeps)
04 - Shock
05 - Dans Ma Memoire (In My Memory)
06 - Pour Tojours (For Always)
07 - Souvenir D'ete (To Remember Summer)
08 - I'm Folie De Toi (I'm Insane For You)
09 - Je Ne Crois Pas (I Do Not Believe)
10 - Esclave De Toi (Slave Of You)
11 - Ah L'Amour L'Amour (Ah Love Love)
12 - Va Au Diable (Go To The Devil)

CD2
01 - Tu Es Foutu (Original Extended)
02 - Tu Es Foutu - THE REMIXES (Miami Grazin' Dub)
03 - You Promised Me (Tu Es Foutu) (Sfaction Mix)
04 - In-Tango (In-String Extended)
05 - Shock (Gambafreaks vs. III Sound Academy Extended Remix)
06 - Shock (Xmas)


CD1
Exact Audio Copy V1.0 beta 3 from 29. August 2011

EAC extraction logfile from 9. September 2013, 15:28

In-Grid / Rendez-Vous - CD 1

Used drive : HL-DT-STDVDRAM GH22NS50 Adapter: 2 ID: 1

Read mode : Secure
Utilize accurate stream : Yes
Defeat audio cache : Yes
Make use of C2 pointers : No

Read offset correction : 667
Overread into Lead-In and Lead-Out : No
Fill up missing offset samples with silence : Yes
Delete leading and trailing silent blocks : No
Null samples used in CRC calculations : Yes
Used interface : Native Win32 interface for Win NT & 2000
Gap handling : Appended to previous track

Used output format : User Defined Encoder
Selected bitrate : 1024 kBit/s
Quality : High
Add ID3 tag : No
Command line compressor : C:\MMProgram\Exact Audio Copy\FLAC\FLAC.EXE
Additional command line options : -6 -V -T "ARTIST=%artist%" -T "TITLE=%title%" -T "ALBUM=%albumtitle%" -T "DATE=%year%" -T "TRACKNUMBER=%tracknr%" -T "GENRE=%genre%" -T "COMMENT=%comment%" -T "BAND=%albuminterpret%" -T "ALBUMARTIST=%albuminterpret%" -T "COMPOSER=%composer%" %haslyrics%--tag-from-file=LYRICS="%lyricsfile%"%haslyrics% -T "DISCNUMBER=%cdnumber%" -T "TOTALDISCS=%totalcds%" -T "TOTALTRACKS=%numtracks%" %hascover%--picture="%coverfile%"%hascover% %source% -o %dest%


TOC of the extracted CD

Track | Start | Length | Start sector | End sector
---------------------------------------------------------
1 | 0:00.00 | 3:27.63 | 0 | 15587
2 | 3:27.63 | 3:38.71 | 15588 | 32008
3 | 7:06.59 | 3:46.23 | 32009 | 48981
4 | 10:53.07 | 3:33.69 | 48982 | 65025
5 | 14:27.01 | 3:45.63 | 65026 | 81963
6 | 18:12.64 | 3:55.46 | 81964 | 99634
7 | 22:08.35 | 3:32.69 | 99635 | 115603
8 | 25:41.29 | 3:35.21 | 115604 | 131749
9 | 29:16.50 | 3:22.66 | 131750 | 146965
10 | 32:39.41 | 3:34.24 | 146966 | 163039
11 | 36:13.65 | 3:29.48 | 163040 | 178762
12 | 39:43.38 | 3:21.23 | 178763 | 193860


Track 1

Filename D:\mm\In-Grid\2003 - Rendez-Vous (2CD's)\CD1\01 - In-Tango.wav

Pre-gap length 0:00:02.00

Peak level 94.9 %
Extraction speed 0.8 X
Track quality 99.9 %
Test CRC 563641E4
Copy CRC 563641E4
Accurately ripped (confidence 13) [3E2B342D] (AR v2)
Copy OK

Track 2

Filename D:\mm\In-Grid\2003 - Rendez-Vous (2CD's)\CD1\02 - Tu Es Foutu.wav

Pre-gap length 0:00:02.00

Peak level 96.6 %
Extraction speed 1.1 X
Track quality 100.0 %
Test CRC DA42B3F9
Copy CRC DA42B3F9
Accurately ripped (confidence 14) [59F4C78A] (AR v2)
Copy OK

Track 3

Filename D:\mm\In-Grid\2003 - Rendez-Vous (2CD's)\CD1\03 - Mais La Nuit ... Il Dort! (The Night...He sleeps).wav

Pre-gap length 0:00:02.00

Peak level 94.4 %
Extraction speed 1.2 X
Track quality 100.0 %
Test CRC 5C963FB8
Copy CRC 5C963FB8
Accurately ripped (confidence 14) [B49D7118] (AR v2)
Copy OK

Track 4

Filename D:\mm\In-Grid\2003 - Rendez-Vous (2CD's)\CD1\04 - Shock.wav

Pre-gap length 0:00:02.00

Peak level 96.6 %
Extraction speed 1.3 X
Track quality 100.0 %
Test CRC C4352875
Copy CRC C4352875
Accurately ripped (confidence 14) [DCA62817] (AR v2)
Copy OK

Track 5

Filename D:\mm\In-Grid\2003 - Rendez-Vous (2CD's)\CD1\05 - Dans Ma Memoire (In My Memory).wav

Pre-gap length 0:00:02.00

Peak level 94.9 %
Extraction speed 1.4 X
Track quality 100.0 %
Test CRC 75022DBA
Copy CRC 75022DBA
Accurately ripped (confidence 13) [2E97355D] (AR v2)
Copy OK

Track 6

Filename D:\mm\In-Grid\2003 - Rendez-Vous (2CD's)\CD1\06 - Pour Tojours (For Always).wav

Pre-gap length 0:00:02.00

Peak level 96.6 %
Extraction speed 1.4 X
Track quality 100.0 %
Test CRC 8B2BBCBF
Copy CRC 8B2BBCBF
Accurately ripped (confidence 13) [2EAD9BED] (AR v2)
Copy OK

Track 7

Filename D:\mm\In-Grid\2003 - Rendez-Vous (2CD's)\CD1\07 - Souvenir D'ete (To Remember Summer).wav

Pre-gap length 0:00:02.00

Peak level 96.6 %
Extraction speed 1.5 X
Track quality 100.0 %
Test CRC 8FA2292F
Copy CRC 8FA2292F
Accurately ripped (confidence 14) [C603AF0C] (AR v2)
Copy OK

Track 8

Filename D:\mm\In-Grid\2003 - Rendez-Vous (2CD's)\CD1\08 - I'm Folie De Toi (I'm Insane For You).wav

Pre-gap length 0:00:02.00

Peak level 94.4 %
Extraction speed 1.6 X
Track quality 100.0 %
Test CRC CE5E3310
Copy CRC CE5E3310
Accurately ripped (confidence 14) [51A9665A] (AR v2)
Copy OK

Track 9

Filename D:\mm\In-Grid\2003 - Rendez-Vous (2CD's)\CD1\09 - Je Ne Crois Pas (I Do Not Believe).wav

Pre-gap length 0:00:02.00

Peak level 96.9 %
Extraction speed 1.6 X
Track quality 100.0 %
Test CRC 8F194A60
Copy CRC 8F194A60
Accurately ripped (confidence 14) [A62E9E64] (AR v2)
Copy OK

Track 10

Filename D:\mm\In-Grid\2003 - Rendez-Vous (2CD's)\CD1\10 - Esclave De Toi (Slave Of You).wav

Pre-gap length 0:00:01.74

Peak level 96.6 %
Extraction speed 0.2 X
Track quality 100.0 %
Test CRC 0DB87302
Copy CRC 0DB87302
Accurately ripped (confidence 14) [271B094A] (AR v2)
Copy OK

Track 11

Filename D:\mm\In-Grid\2003 - Rendez-Vous (2CD's)\CD1\11 - Ah L'Amour L'Amour (Ah Love Love).wav

Pre-gap length 0:00:02.00

Peak level 90.9 %
Extraction speed 2.1 X
Track quality 100.0 %
Test CRC 2D304DDB
Copy CRC 2D304DDB
Accurately ripped (confidence 14) [A60D0568] (AR v2)
Copy OK

Track 12

Filename D:\mm\In-Grid\2003 - Rendez-Vous (2CD's)\CD1\12 - Va Au Diable (Go To The Devil).wav

Pre-gap length 0:00:02.00

Peak level 96.6 %
Extraction speed 2.1 X
Track quality 100.0 %
Test CRC 4453E4F9
Copy CRC 4453E4F9
Accurately ripped (confidence 13) [99DE3A5F] (AR v2)
Copy OK


All tracks accurately ripped

No errors occurred

End of status report

CD2
Exact Audio Copy V1.0 beta 3 from 29. August 2011

EAC extraction logfile from 9. September 2013, 16:44

In-Grid / Rendez-Vous (Bonus Disc)

Used drive : HL-DT-STDVDRAM GH22NS50 Adapter: 2 ID: 1

Read mode : Secure
Utilize accurate stream : Yes
Defeat audio cache : Yes
Make use of C2 pointers : No

Read offset correction : 667
Overread into Lead-In and Lead-Out : No
Fill up missing offset samples with silence : Yes
Delete leading and trailing silent blocks : No
Null samples used in CRC calculations : Yes
Used interface : Native Win32 interface for Win NT & 2000
Gap handling : Appended to previous track

Used output format : User Defined Encoder
Selected bitrate : 1024 kBit/s
Quality : High
Add ID3 tag : No
Command line compressor : C:\MMProgram\Exact Audio Copy\FLAC\FLAC.EXE
Additional command line options : -6 -V -T "ARTIST=%artist%" -T "TITLE=%title%" -T "ALBUM=%albumtitle%" -T "DATE=%year%" -T "TRACKNUMBER=%tracknr%" -T "GENRE=%genre%" -T "COMMENT=%comment%" -T "BAND=%albuminterpret%" -T "ALBUMARTIST=%albuminterpret%" -T "COMPOSER=%composer%" %haslyrics%--tag-from-file=LYRICS="%lyricsfile%"%haslyrics% -T "DISCNUMBER=%cdnumber%" -T "TOTALDISCS=%totalcds%" -T "TOTALTRACKS=%numtracks%" %hascover%--picture="%coverfile%"%hascover% %source% -o %dest%


TOC of the extracted CD

Track | Start | Length | Start sector | End sector
---------------------------------------------------------
1 | 0:00.00 | 6:00.72 | 0 | 27071
2 | 6:00.72 | 6:51.33 | 27072 | 57929
3 | 12:52.30 | 5:00.21 | 57930 | 80450
4 | 17:52.51 | 4:24.45 | 80451 | 100295
5 | 22:17.21 | 5:17.29 | 100296 | 124099
6 | 27:34.50 | 3:35.69 | 124100 | 140293
7 | 33:42.44 | 9:56.16 | 151694 | 196409


Track 1

Filename D:\mm\In-Grid\2003 - Rendez-Vous (2CD's)\CD2\01 - Tu Es Foutu (Original Extended).wav

Pre-gap length 0:00:02.00

Peak level 96.6 %
Extraction speed 1.1 X
Track quality 100.0 %
Test CRC 5CD5A3FD
Copy CRC 5CD5A3FD
Cannot be verified as accurate (confidence 5) [4F58817F], AccurateRip returned [8D71FC28] (AR v2)
Copy OK

Track 2

Filename D:\mm\In-Grid\2003 - Rendez-Vous (2CD's)\CD2\02 - Tu Es Foutu - THE REMIXES (Miami Grazin' Dub).wav

Pre-gap length 0:00:01.00

Peak level 96.6 %
Extraction speed 1.3 X
Track quality 100.0 %
Test CRC 0DC43AD2
Copy CRC 0DC43AD2
Cannot be verified as accurate (confidence 5) [600C5F57], AccurateRip returned [14001D7E] (AR v2)
Copy OK

Track 3

Filename D:\mm\In-Grid\2003 - Rendez-Vous (2CD's)\CD2\03 - You Promised Me (Tu Es Foutu) (Sfaction Mix).wav

Pre-gap length 0:00:02.00

Peak level 85.9 %
Extraction speed 1.4 X
Track quality 100.0 %
Test CRC B675F1C5
Copy CRC B675F1C5
Cannot be verified as accurate (confidence 5) [BC135B06], AccurateRip returned [CEFA6EB9] (AR v2)
Copy OK

Track 4

Filename D:\mm\In-Grid\2003 - Rendez-Vous (2CD's)\CD2\04 - In-Tango (In-String Extended).wav

Pre-gap length 0:00:02.00

Peak level 96.9 %
Extraction speed 1.3 X
Track quality 99.9 %
Test CRC D08FC2C8
Copy CRC D08FC2C8
Cannot be verified as accurate (confidence 5) [D3AE2203], AccurateRip returned [10236E08] (AR v2)
Copy OK

Track 5

Filename D:\mm\In-Grid\2003 - Rendez-Vous (2CD's)\CD2\05 - Shock (Gambafreaks vs. III Sound Academy Extended Remix).wav

Pre-gap length 0:00:02.00

Peak level 96.9 %
Extraction speed 1.4 X
Track quality 99.9 %
Test CRC 10FE95A1
Copy CRC 10FE95A1
Cannot be verified as accurate (confidence 5) [46A085F8], AccurateRip returned [6C439413] (AR v2)
Copy OK

Track 6

Filename D:\mm\In-Grid\2003 - Rendez-Vous (2CD's)\CD2\06 - Shock (Xmas).wav

Pre-gap length 0:00:02.00

Peak level 96.6 %
Extraction speed 1.6 X
Track quality 100.0 %
Test CRC B1B209E1
Copy CRC B1B209E1
Cannot be verified as accurate (confidence 5) [E8EDC860], AccurateRip returned [9CB00650] (AR v2)
Copy OK


No tracks could be verified as accurate
You may have a different pressing from the one(s) in the database

No errors occurred

End of status report
CD1
AUDIOCHECKER v2.0 beta (build 457) - by Dester - [email protected]
~~~~~~~~~~~~~~~~~~~~~~~~~~~~~~~~~~
-=== НЕ РЕДАКТИРУЙТЕ ЭТОТ ФАЙЛ! ===-

Путь: ...\CD1

01 -=- 01 - In-Tango.flac -=- CDDA (100%)
02 -=- 02 - Tu Es Foutu.flac -=- CDDA (100%)
03 -=- 03 - Mais La Nuit ... Il Dort! (The Night...He sleeps).flac -=- CDDA (99%)
04 -=- 04 - Shock.flac -=- CDDA (100%)
05 -=- 05 - Dans Ma Memoire (In My Memory).flac -=- CDDA (100%)
06 -=- 06 - Pour Tojours (For Always).flac -=- CDDA (100%)
07 -=- 07 - Souvenir D'ete (To Remember Summer).flac -=- CDDA (100%)
08 -=- 08 - I'm Folie De Toi (I'm Insane For You).flac -=- CDDA (100%)
09 -=- 09 - Je Ne Crois Pas (I Do Not Believe).flac -=- CDDA (100%)
10 -=- 10 - Esclave De Toi (Slave Of You).flac -=- CDDA (100%)
11 -=- 11 - Ah L'Amour L'Amour (Ah Love Love).flac -=- CDDA (100%)
12 -=- 12 - Va Au Diable (Go To The Devil).flac -=- CDDA (100%)

Сводка 99,92% CDDA

83594772

CD2
AUDIOCHECKER v2.0 beta (build 457) - by Dester - [email protected]
~~~~~~~~~~~~~~~~~~~~~~~~~~~~~~~~~~
-=== НЕ РЕДАКТИРУЙТЕ ЭТОТ ФАЙЛ! ===-

Путь: ...\CD2

1 -=- 01 - Tu Es Foutu (Original Extended).flac -=- CDDA (100%)
2 -=- 02 - Tu Es Foutu - THE REMIXES (Miami Grazin' Dub).flac -=- CDDA (100%)
3 -=- 03 - You Promised Me (Tu Es Foutu) (Sfaction Mix).flac -=- CDDA (100%)
4 -=- 04 - In-Tango (In-String Extended).flac -=- CDDA (99%)
5 -=- 05 - Shock (Gambafreaks vs. III Sound Academy Extended Remix).flac -=- CDDA (100%)
6 -=- 06 - Shock (Xmas).flac -=- CDDA (100%)

Сводка 99,83% CDDA

220629524
Нет цитаты​
отличный альбом хорошее качество записи
 
Сверху