Richard Marx

aheron

Гуру
VIP
Сообщения
15,712
Реакции
18,823




 

aheron

Гуру
VIP
Сообщения
15,712
Реакции
18,823
Richard Marx - Stories To Tell (2010)





Performer: Richard Marx
Album: Stories To Tell
Label: Zanzibar Productions/Wrasse Records. Made in UK.
Catalog #: WRASS281
Style: Acoustic, Soft Rock, Ballad
Year: 2010
Format: FLAC (image + .cue)
Bitrate: lossless
Covers: in archive
Amount of tracks: 18
Size ZIP: ~ 493 mb

Exact Audio Copy V0.99 prebeta 5 from 4. May 2009

Отчёт EAC об извлечении, выполненном 5. января 2011, 18:56

Richard Marx / Stories To Tell

Дисковод: HL-DT-STDVD-RAM GSA-H55L Adapter: 0 ID: 0

Режим чтения : Достоверность
Использование точного потока : Да
Отключение кэша аудио : Да
Использование указателей C2 : Нет

Коррекция смещения при чтении : 102
Способность читать области Lead-in и Lead-out : Нет
Заполнение пропущенных сэмплов тишиной : Да
Удаление блоков с тишиной в начале и конце : Нет
При вычислениях CRC использовались нулевые сэмплы : Да
Интерфейс : Встроенный Win32-интерфейс для Win NT/2000

Выходной формат : Пользовательский кодировщик
Выбранный битрейт : 1024 kBit/s
Качество : Высокий
Добавление ID3-тэга : Нет
Утилита сжатия : C:\Program Files\Exact Audio Copy\FLAC\FLAC.EXE
Дополнительные параметры : -8 -V %s


TOC извлечённого CD

Трек | Старт | Длительность | Начальный сектор | Конечный сектор
---------------------------------------------------------------------
1 | 0:00.00 | 4:31.38 | 0 | 20362
2 | 4:31.38 | 3:52.52 | 20363 | 37814
3 | 8:24.15 | 4:15.34 | 37815 | 56973
4 | 12:39.49 | 3:35.09 | 56974 | 73107
5 | 16:14.58 | 4:34.57 | 73108 | 93714
6 | 20:49.40 | 3:55.24 | 93715 | 111363
7 | 24:44.64 | 5:43.38 | 111364 | 137126
8 | 30:28.27 | 4:03.00 | 137127 | 155351
9 | 34:31.27 | 4:17.05 | 155352 | 174631
10 | 38:48.32 | 3:16.13 | 174632 | 189344
11 | 42:04.45 | 4:47.42 | 189345 | 210911
12 | 46:52.12 | 4:38.49 | 210912 | 231810
13 | 51:30.61 | 3:32.57 | 231811 | 247767
14 | 55:03.43 | 3:46.13 | 247768 | 264730
15 | 58:49.56 | 3:13.74 | 264731 | 279279
16 | 62:03.55 | 5:13.22 | 279280 | 302776
17 | 67:17.02 | 5:13.20 | 302777 | 326271
18 | 72:30.22 | 4:32.53 | 326272 | 346724


Характеристики диапазона извлечения и сообщения об ошибках

Выбранный диапазон

Имя файла F:\flac\Richard Marx - Stories To Tell.wav

Пиковый уровень 100.0 %
Качество диапазона 99.9 %
CRC теста 962FABF4
CRC копии 962FABF4
Копирование... OK

Ошибок не произошло


AccurateRip: сводка

Трек 1 точное извлечение (доверие 1) [E2F3B382]
Трек 2 точное извлечение (доверие 1) [75312213]
Трек 3 точное извлечение (доверие 1) [CA11B6C1]
Трек 4 точное извлечение (доверие 1) [CF9CE49E]
Трек 5 точное извлечение (доверие 1) [80339EE6]
Трек 6 точное извлечение (доверие 1) [A7CE3EAA]
Трек 7 точное извлечение (доверие 1) [CF8AAA85]
Трек 8 точное извлечение (доверие 1) [53414319]
Трек 9 точное извлечение (доверие 1) [447156E9]
Трек 10 точное извлечение (доверие 1) [DF94B119]
Трек 11 точное извлечение (доверие 1) [46E53574]
Трек 12 точное извлечение (доверие 1) [06879BFF]
Трек 13 точное извлечение (доверие 1) [DACD1570]
Трек 14 точное извлечение (доверие 1) [B2DBD01F]
Трек 15 точное извлечение (доверие 1) [D6F73BED]
Трек 16 точное извлечение (доверие 1) [B0AF5F8E]
Трек 17 точное извлечение (доверие 1) [1B8EE2BF]
Трек 18 точное извлечение (доверие 1) [8EC3E72C]

Все треки извлечены точно

Конец отчёта
-----------------------

DON'T MODIFY THIS FILE

-----------------------

PERFORMER: auCDtect Task Manager, ver. 1.6.0 RC1 build 1.6.0.1
Copyright (c) 2008-2010 y-soft. All rights reserved


ANALYZER: auCDtect: CD records authenticity detector, version 0.8.2
Copyright (c) 2004 Oleg Berngardt. All rights reserved.
Copyright (c) 2004 Alexander Djourik. All rights reserved.


FILE: Richard Marx - Stories To Tell.flac
Size: 484881719 Hash: FCD6C3AB0D672A54940DD492018A8C50 Accuracy: -m0
Conclusion: CDDA 100%
Signature: 872641AA5E4AFCD972442B36FAB6A4097CC97BF1
foobar2000 1.3.7 / Dynamic Range Meter 1.1.1
log date: 2015-02-04 23:00:19

--------------------------------------------------------------------------------
Analyzed: Richard Marx / Stories To Tell
--------------------------------------------------------------------------------

DR Peak RMS Duration Track
--------------------------------------------------------------------------------
DR10 -0.05 dB -12.91 dB 4:32 01-Endless Summer Nights
DR11 -0.40 dB -14.22 dB 3:53 02-One Thing Left
DR11 -2.05 dB -16.06 dB 4:15 03-Hazard
DR10 -0.65 dB -12.47 dB 3:35 04-Over My Head
DR10 -0.52 dB -12.77 dB 4:35 05-Angelia
DR9 -1.26 dB -13.97 dB 3:55 06-Now And Forever
DR12 -0.43 dB -14.72 dB 5:44 07-Keep Coming Back
DR9 -0.17 dB -11.74 dB 4:03 08-This I Promise You
DR9 -0.48 dB -12.70 dB 4:17 09-Loved
DR11 -0.78 dB -13.59 dB 3:16 10-Should've Known Better
DR11 -1.96 dB -15.35 dB 4:48 11-Right Here Waiting
DR6 0.00 dB -8.70 dB 4:39 12-This I Promise You
DR9 -1.94 dB -14.24 dB 3:33 13-To Where You Are
DR6 0.00 dB -7.24 dB 3:46 14-Had Enough
DR6 0.00 dB -7.05 dB 3:14 15-On The Inside
DR6 0.00 dB -8.01 dB 5:13 16-Never Take Me Dancing
DR6 0.00 dB -8.98 dB 5:13 17-Everybody
DR10 -1.22 dB -14.68 dB 4:33 18-The Best Of Me
--------------------------------------------------------------------------------

Number of tracks: 18
Official DR value: DR9

Samplerate: 44100 Hz
Channels: 2
Bits per sample: 16
Bitrate: 839 kbps
Codec: FLAC
================================================================================
01. Richard Marx - Endless Summer Nights [4:32]
02. Richard Marx - One Thing Left [3:53]
03. Richard Marx - Hazard [4:15]
04. Richard Marx - Over My Head [3:35]
05. Richard Marx - Angelia [4:35]
06. Richard Marx - Now And Forever [3:55]
07. Richard Marx - Keep Coming Back [5:44]
08. Richard Marx - This I Promise You [4:03]
09. Richard Marx - Loved [4:17]
10. Richard Marx - Should've Known Better [3:16]
11. Richard Marx - Right Here Waiting [4:48]
-=Bonus Tracks=-
12. Richard Marx - This I Promise You [4:39]
13. Richard Marx - To Where You Are [3:33]
14. Richard Marx - Had Enough [3:46]
15. Richard Marx - On The Inside [3:14]
16. Richard Marx - Never Take Me Dancing [5:13]
17. Richard Marx - Everybody [5:13]
18. Richard Marx - The Best Of Me [4:33]
--------------------------
Total time: [1:17:03]
 
Последнее редактирование модератором:
Сверху