aheron

Гуру
Команда форума
Гуру
Сообщения
15,764
Реакции
18,985
Scorpions - The Platinum Collection (2005) [3CD Set]





Performer: Scorpions
Album: The Platinum Collection (Three CD Set)
Including: 3 × CD, Compilation
Label: Capitol Music/EMI. Made in Germany.
Catalog #: 00946 340407 2 3
Style: Hard Rock, Heavy Metal
Year: 2005
Format: FLAC (image + .cue)
Bitrate: lossless
Covers: in archive
Amount of tracks: 16+16+16
Size ZIP: ~ 1,56 gb

Exact Audio Copy V0.99 prebeta 4 from 23. January 2008

EAC extraction logfile from 15. June 2009, 19:06

Scorpions / The Platinum Collection Cd1

Used drive : HL-DT-STDVD-ROM GDR8082N Adapter: 1 ID: 0

Read mode : Secure
Utilize accurate stream : Yes
Defeat audio cache : Yes
Make use of C2 pointers : No

Read offset correction : 102
Overread into Lead-In and Lead-Out : No
Fill up missing offset samples with silence : Yes
Delete leading and trailing silent blocks : No
Null samples used in CRC calculations : Yes
Used interface : Installed external ASPI interface

Used output format : Internal WAV Routines
Sample format : 44.100 Hz; 16 Bit; Stereo


TOC of the extracted CD

Track | Start | Length | Start sector | End sector
---------------------------------------------------------
1 | 0:00.00 | 4:41.60 | 0 | 21134
2 | 4:41.60 | 4:37.32 | 21135 | 41941
3 | 9:19.17 | 3:22.36 | 41942 | 57127
4 | 12:41.53 | 3:14.43 | 57128 | 71720
5 | 15:56.21 | 4:41.11 | 71721 | 92806
6 | 20:37.32 | 4:50.46 | 92807 | 114602
7 | 25:28.03 | 4:19.25 | 114603 | 134052
8 | 29:47.28 | 6:30.11 | 134053 | 163313
9 | 36:17.39 | 3:33.21 | 163314 | 179309
10 | 39:50.60 | 3:50.08 | 179310 | 196567
11 | 43:40.68 | 5:29.45 | 196568 | 221287
12 | 49:10.38 | 3:46.48 | 221288 | 238285
13 | 52:57.11 | 3:49.09 | 238286 | 255469
14 | 56:46.20 | 3:45.35 | 255470 | 272379
15 | 60:31.55 | 2:33.64 | 272380 | 283918
16 | 63:05.44 | 4:12.03 | 283919 | 302821


Range status and errors

Selected range

Filename D:\Backup\Scorpions - The Platinum Collection Cd1.wav

Peak level 99.8 %
Range quality 100.0 %
Test CRC F21310CB
Copy CRC F21310CB
Copy OK

No errors occurred


AccurateRip summary

Track 1 accurately ripped (confidence 12) [365A660A]
Track 2 accurately ripped (confidence 13) [7D4FF44E]
Track 3 accurately ripped (confidence 13) [26C6629E]
Track 4 accurately ripped (confidence 13) [FA40C358]
Track 5 accurately ripped (confidence 13) [CDC77A3C]
Track 6 accurately ripped (confidence 13) [3AEE9A2E]
Track 7 accurately ripped (confidence 13) [9684533A]
Track 8 accurately ripped (confidence 13) [F3372949]
Track 9 accurately ripped (confidence 13) [08FB7689]
Track 10 accurately ripped (confidence 13) [973F7F0D]
Track 11 accurately ripped (confidence 13) [EEA77892]
Track 12 accurately ripped (confidence 13) [94D291A2]
Track 13 accurately ripped (confidence 13) [0BC65F25]
Track 14 accurately ripped (confidence 13) [76B37FF6]
Track 15 accurately ripped (confidence 13) [2BADD00E]
Track 16 accurately ripped (confidence 13) [E148DA6D]

All tracks accurately ripped

End of status report

///////////////////////////////////////////////////////////////

Exact Audio Copy V0.99 prebeta 4 from 23. January 2008

EAC extraction logfile from 15. June 2009, 19:57

Scorpions / The Platinum Collection CD 2

Used drive : HL-DT-STDVD-ROM GDR8082N Adapter: 1 ID: 0

Read mode : Secure
Utilize accurate stream : Yes
Defeat audio cache : Yes
Make use of C2 pointers : No

Read offset correction : 102
Overread into Lead-In and Lead-Out : No
Fill up missing offset samples with silence : Yes
Delete leading and trailing silent blocks : No
Null samples used in CRC calculations : Yes
Used interface : Installed external ASPI interface

Used output format : Internal WAV Routines
Sample format : 44.100 Hz; 16 Bit; Stereo


TOC of the extracted CD

Track | Start | Length | Start sector | End sector
---------------------------------------------------------
1 | 0:00.00 | 3:55.30 | 0 | 17654
2 | 3:55.30 | 3:55.55 | 17655 | 35334
3 | 7:51.10 | 6:09.72 | 35335 | 63081
4 | 14:01.07 | 4:08.61 | 63082 | 81742
5 | 18:09.68 | 4:12.49 | 81743 | 100691
6 | 22:22.42 | 4:59.61 | 100692 | 123177
7 | 27:22.28 | 3:48.24 | 123178 | 140301
8 | 31:10.52 | 4:49.41 | 140302 | 162017
9 | 36:00.18 | 3:59.14 | 162018 | 179956
10 | 39:59.32 | 3:21.71 | 179957 | 195102
11 | 43:21.28 | 7:13.44 | 195103 | 227621
12 | 50:34.72 | 5:12.44 | 227622 | 251065
13 | 55:47.41 | 4:32.46 | 251066 | 271511
14 | 60:20.12 | 5:43.22 | 271512 | 297258
15 | 66:03.34 | 3:53.47 | 297259 | 314780
16 | 69:57.06 | 4:52.64 | 314781 | 336744


Range status and errors

Selected range

Filename D:\Backup\Scorpions - The Platinum Collection CD 2.wav

Peak level 99.8 %
Range quality 100.0 %
Test CRC F54ACEE2
Copy CRC F54ACEE2
Copy OK

No errors occurred


AccurateRip summary

Track 1 accurately ripped (confidence 13) [5DFBD9C6]
Track 2 accurately ripped (confidence 13) [7DB67F5E]
Track 3 accurately ripped (confidence 13) [7C9B347E]
Track 4 accurately ripped (confidence 14) [02CDEBC8]
Track 5 accurately ripped (confidence 14) [3161DA71]
Track 6 accurately ripped (confidence 14) [BE9366F6]
Track 7 accurately ripped (confidence 14) [A1D11926]
Track 8 accurately ripped (confidence 14) [E235C6BC]
Track 9 accurately ripped (confidence 14) [F2935A5A]
Track 10 accurately ripped (confidence 14) [1035572B]
Track 11 accurately ripped (confidence 14) [605DDBC6]
Track 12 accurately ripped (confidence 14) [44B4F3EA]
Track 13 accurately ripped (confidence 14) [DFAFE367]
Track 14 accurately ripped (confidence 14) [E7B71506]
Track 15 accurately ripped (confidence 14) [11A03930]
Track 16 accurately ripped (confidence 13) [1D1C8973]

All tracks accurately ripped

End of status report

/////////////////////////////////////////////////////////////////////////

Exact Audio Copy V0.99 prebeta 4 from 23. January 2008

EAC extraction logfile from 15. June 2009, 21:19

Scorpions / Platinum Collection CD3

Used drive : HL-DT-STDVD-ROM GDR8082N Adapter: 1 ID: 0

Read mode : Secure
Utilize accurate stream : Yes
Defeat audio cache : Yes
Make use of C2 pointers : No

Read offset correction : 102
Overread into Lead-In and Lead-Out : No
Fill up missing offset samples with silence : Yes
Delete leading and trailing silent blocks : No
Null samples used in CRC calculations : Yes
Used interface : Installed external ASPI interface

Used output format : Internal WAV Routines
Sample format : 44.100 Hz; 16 Bit; Stereo


TOC of the extracted CD

Track | Start | Length | Start sector | End sector
---------------------------------------------------------
1 | 0:00.00 | 6:14.56 | 0 | 28105
2 | 6:14.56 | 5:56.37 | 28106 | 54842
3 | 12:11.18 | 4:15.48 | 54843 | 74015
4 | 16:26.66 | 4:10.32 | 74016 | 92797
5 | 20:37.23 | 4:17.57 | 92798 | 112129
6 | 24:55.05 | 4:26.63 | 112130 | 132142
7 | 29:21.68 | 3:39.14 | 132143 | 148581
8 | 33:01.07 | 3:53.19 | 148582 | 166075
9 | 36:54.26 | 5:05.28 | 166076 | 188978
10 | 41:59.54 | 5:28.21 | 188979 | 213599
11 | 47:28.00 | 4:20.56 | 213600 | 233155
12 | 51:48.56 | 5:07.63 | 233156 | 256243
13 | 56:56.44 | 4:18.70 | 256244 | 275663
14 | 61:15.39 | 3:40.29 | 275664 | 292192
15 | 64:55.68 | 3:39.05 | 292193 | 308622
16 | 68:34.73 | 4:23.41 | 308623 | 328388


Range status and errors

Selected range

Filename D:\Backup\Scorpions - Platinum Collection CD3.wav

Peak level 99.8 %
Range quality 100.0 %
Test CRC 8ECE6F25
Copy CRC 8ECE6F25
Copy OK

No errors occurred


AccurateRip summary

Track 1 accurately ripped (confidence 12) [86D77F33]
Track 2 accurately ripped (confidence 12) [C1F7B0F8]
Track 3 accurately ripped (confidence 13) [076175D0]
Track 4 accurately ripped (confidence 13) [ED6F950E]
Track 5 accurately ripped (confidence 13) [3431B7A0]
Track 6 accurately ripped (confidence 13) [71D95A7A]
Track 7 accurately ripped (confidence 13) [700D0F03]
Track 8 accurately ripped (confidence 13) [FC0AD598]
Track 9 accurately ripped (confidence 13) [835C3E02]
Track 10 accurately ripped (confidence 13) [7CA323F6]
Track 11 accurately ripped (confidence 14) [E1B32AC2]
Track 12 accurately ripped (confidence 14) [C9383103]
Track 13 accurately ripped (confidence 14) [B884DF3F]
Track 14 accurately ripped (confidence 14) [8725B2ED]
Track 15 accurately ripped (confidence 14) [01AFEEDA]
Track 16 accurately ripped (confidence 13) [9ABF8860]

All tracks accurately ripped

End of status report
-----------------------

DON'T MODIFY THIS FILE

-----------------------

PERFORMER: auCDtect Task Manager, ver. 1.6.0 RC1 build 1.6.0.1
Copyright (c) 2008-2010 y-soft. All rights reserved


ANALYZER: auCDtect: CD records authenticity detector, version 0.8.2
Copyright (c) 2004 Oleg Berngardt. All rights reserved.
Copyright (c) 2004 Alexander Djourik. All rights reserved.


FILE: Scorpions - The Platinum Collection Cd1.flac
Size: 512556372 Hash: 78D908C67C2EE04C7198BC64F7B0180F Accuracy: -m0
Conclusion: CDDA 100%
Signature: FB440AF80C4393705B6F6FA3944DBC318B239566

/////////////////////////////////////////////////////////////////////

-----------------------

DON'T MODIFY THIS FILE

-----------------------

PERFORMER: auCDtect Task Manager, ver. 1.6.0 RC1 build 1.6.0.1
Copyright (c) 2008-2010 y-soft. All rights reserved


ANALYZER: auCDtect: CD records authenticity detector, version 0.8.2
Copyright (c) 2004 Oleg Berngardt. All rights reserved.
Copyright (c) 2004 Alexander Djourik. All rights reserved.


FILE: Scorpions - The Platinum Collection CD 2.flac
Size: 563140562 Hash: 1C976390E2C1A78F0B622FF540DAD946 Accuracy: -m0
Conclusion: CDDA 99%
Signature: F30FEA2AB1C386A50ECAB1C6BC568D5B5C6789BF

////////////////////////////////////////////////////////////////////////

-----------------------

DON'T MODIFY THIS FILE

-----------------------

PERFORMER: auCDtect Task Manager, ver. 1.6.0 RC1 build 1.6.0.1
Copyright (c) 2008-2010 y-soft. All rights reserved


ANALYZER: auCDtect: CD records authenticity detector, version 0.8.2
Copyright (c) 2004 Oleg Berngardt. All rights reserved.
Copyright (c) 2004 Alexander Djourik. All rights reserved.


FILE: Scorpions - Platinum Collection CD3.flac
Size: 548047906 Hash: 088F1D45647792CAD76B293371817D4C Accuracy: -m0
Conclusion: CDDA 100%
Signature: 6D0AA62BBCB486E7C36F10A12FCB2D499E2D6499
foobar2000 1.2.8 / Dynamic Range Meter 1.1.1
log date: 2013-09-11 01:02:02

--------------------------------------------------------------------------------
Analyzed: Scorpions / The Platinum Collection Cd1
--------------------------------------------------------------------------------

DR Peak RMS Duration Track
--------------------------------------------------------------------------------
DR7 -0.01 dB -10.61 dB 4:42 01-In Trance
DR8 -0.01 dB -9.31 dB 4:37 02-Crying Days
DR8 -0.01 dB -8.71 dB 3:22 03-Pictured Life
DR6 -1.01 dB -8.39 dB 3:15 04-He's A Woman, She's A Man
DR7 -0.01 dB -7.85 dB 4:41 05-Coast To Coast
DR6 -0.01 dB -7.11 dB 4:51 06-Lovedrive
DR9 -0.01 dB -11.13 dB 4:19 07-Is There Anybody There?
DR8 -0.01 dB -11.88 dB 6:30 08-Holiday
DR7 -0.01 dB -8.06 dB 3:33 09-Another Piece Of Meat
DR8 -0.01 dB -9.29 dB 3:50 10-Make It Real
DR7 -0.01 dB -7.93 dB 5:30 11-The Zoo
DR7 -0.01 dB -8.15 dB 3:47 12-Hey You
DR7 -0.01 dB -7.43 dB 3:49 13-Blackout
DR7 -0.01 dB -7.67 dB 3:45 14-Can't Live Without You
DR7 -0.01 dB -7.68 dB 2:34 15-Now!
DR7 -0.01 dB -7.23 dB 4:12 16-Dynamite
--------------------------------------------------------------------------------

Number of tracks: 16
Official DR value: DR7

Samplerate: 44100 Hz
Channels: 2
Bits per sample: 16
Bitrate: 1015 kbps
Codec: FLAC
================================================================================

//////////////////////////////////////////////////////////////////////////

foobar2000 1.2.8 / Dynamic Range Meter 1.1.1
log date: 2013-09-11 01:07:59

--------------------------------------------------------------------------------
Analyzed: Scorpions / The Platinum Collection CD 2
--------------------------------------------------------------------------------

DR Peak RMS Duration Track
--------------------------------------------------------------------------------
DR7 -0.01 dB -8.18 dB 3:55 01-No One Like You
DR9 -0.01 dB -9.64 dB 3:56 02-Bad Boys Running Wild
DR10 -0.01 dB -12.47 dB 6:10 03-Still Loving You
DR9 -0.01 dB -9.79 dB 4:09 04-Big City Nights
DR9 -0.01 dB -10.00 dB 4:13 05-Rock You Like A Hurricane
DR8 -0.01 dB -10.01 dB 5:00 06-Coming Home
DR7 -1.51 dB -9.83 dB 3:48 07-Rhythm Of Love
DR8 -0.01 dB -9.75 dB 4:50 08-Believe In Love
DR8 -1.51 dB -10.41 dB 3:59 09-Passion Rules The Game
DR8 -0.01 dB -8.96 dB 3:22 10-Can't Explain
DR8 -0.01 dB -10.50 dB 7:14 11-Living For Tomorrow
DR8 -0.01 dB -10.42 dB 5:13 12-Wind Of Change
DR9 -0.01 dB -11.09 dB 4:33 13-Send Me An Angel
DR7 -0.01 dB -7.69 dB 5:43 14-Alien Nation
DR7 -0.01 dB -8.14 dB 3:54 15-No Pain No Gain
DR8 -0.01 dB -9.94 dB 4:53 16-Under The Same Sun
--------------------------------------------------------------------------------

Number of tracks: 16
Official DR value: DR8

Samplerate: 44100 Hz
Channels: 2
Bits per sample: 16
Bitrate: 1003 kbps
Codec: FLAC
================================================================================

/////////////////////////////////////////////////////////////////////////////

foobar2000 1.2.8 / Dynamic Range Meter 1.1.1
log date: 2013-09-11 01:09:33

--------------------------------------------------------------------------------
Analyzed: Scorpions / Platinum Collection CD3
--------------------------------------------------------------------------------

DR Peak RMS Duration Track
--------------------------------------------------------------------------------
DR7 -0.01 dB -9.05 dB 6:15 01-You and I
DR7 -0.01 dB -9.77 dB 5:56 02-Does Anyone Know
DR7 -0.01 dB -8.12 dB 4:16 03-Wild Child
DR8 -0.01 dB -9.45 dB 4:10 04-Where the River Flows
DR8 -0.01 dB -9.01 dB 4:18 05-Edge of Time
DR8 -0.01 dB -9.52 dB 4:27 06-When You Came into My Life
DR8 -0.01 dB -11.79 dB 3:39 07-A Moment in a Million Years
DR6 -1.01 dB -9.19 dB 3:53 08-10 Light Years Away
DR8 -0.01 dB -9.83 dB 5:05 09-Eye to Eye
DR7 -0.51 dB -8.61 dB 5:28 10-Mysterious
DR6 -0.52 dB -7.50 dB 4:21 11-Aleyah
DR7 -0.01 dB -9.52 dB 5:08 12-Moment of Glory
DR7 -0.01 dB -9.63 dB 4:19 13-Here in My Heart
DR8 -0.01 dB -10.13 dB 3:40 14-When Love Kills Love
DR7 -0.01 dB -7.91 dB 3:39 15-Deep and Dark
DR7 -0.01 dB -8.38 dB 4:24 16-Remember the Good Times
--------------------------------------------------------------------------------

Number of tracks: 16
Official DR value: DR7

Samplerate: 44100 Hz
Channels: 2
Bits per sample: 16
Bitrate: 1001 kbps
Codec: FLAC
================================================================================
CD1
-----------------------------
01. Scorpions - In Trance [4:42]
02. Scorpions - Crying Days [4:37]
03. Scorpions - Pictured Life [3:22]
04. Scorpions - He's A Woman, She's A Man [3:15]
05. Scorpions - Coast To Coast [4:41]
06. Scorpions - Lovedrive [4:51]
07. Scorpions - Is There Anybody There? [4:19]
08. Scorpions - Holiday [6:30]
09. Scorpions - Another Piece Of Meat [3:33]
10. Scorpions - Make It Real [3:50]
11. Scorpions - The Zoo [5:30]
12. Scorpions - Hey You [3:47]
13. Scorpions - Blackout [3:49]
14. Scorpions - Can't Live Without You [3:45]
15. Scorpions - Now! [2:34]
16. Scorpions - Dynamite [4:12]
------------------------------
Total time: [1:07:17]


CD2
-----------------------------
01. Scorpions - No One Like You [3:55]
02. Scorpions - Bad Boys Running Wild [3:56]
03. Scorpions - Still Loving You [6:10]
04. Scorpions - Big City Nights [4:09]
05. Scorpions - Rock You Like A Hurricane [4:13]
06. Scorpions - Coming Home [5:00]
07. Scorpions - Rhythm Of Love [3:48]
08. Scorpions - Believe In Love [4:50]
09. Scorpions - Passion Rules The Game [3:59]
10. Scorpions - Can't Explain [3:22]
11. Scorpions - Living For Tomorrow [7:14]
12. Scorpions - Wind Of Change [5:13]
13. Scorpions - Send Me An Angel [4:33]
14. Scorpions - Alien Nation [5:43]
15. Scorpions - No Pain No Gain [3:54]
16. Scorpions - Under The Same Sun [4:53]
------------------------------
Total time: [1:14:49]


CD3
-----------------------------
01. Scorpions - You and I [6:15]
02. Scorpions - Does Anyone Know [5:56]
03. Scorpions - Wild Child [4:16]
04. Scorpions - Where the River Flows [4:10]
05. Scorpions - Edge of Time [4:18]
06. Scorpions - When You Came into My Life [4:27]
07. Scorpions - A Moment in a Million Years [3:39]
08. Scorpions - 10 Light Years Away [3:53]
09. Scorpions - Eye to Eye [5:05]
10. Scorpions - Mysterious [5:28]
11. Scorpions - Aleyah [4:21]
12. Scorpions - Moment of Glory [5:08]
13. Scorpions - Here in My Heart [4:19]
14. Scorpions - When Love Kills Love [3:40]
15. Scorpions - Deep and Dark [3:39]
16. Scorpions - Remember the Good Times [4:24]
------------------------------
Total time: [1:12:58]

All CD time: [3:35:06]


Notes:
======================
(P) 2005 The Copyright In This Compilation Is Owned By Capitol Music, A Division Of EMI Music Germany GmbH & Co. KG (C) 2005 EMI Music Germany GmbH & Co. KG.
Made in the EU.
Для просмотра скрытого содержимого необходимо Войти или Зарегистрироваться.​
 
Последнее редактирование модератором:

aheron

Гуру
Команда форума
Гуру
Сообщения
15,764
Реакции
18,985
Scorpions - Humanity - Hour I (2007) [Japan]





Performer: Scorpions
Album: Humanity - Hour I
Label: BMG/RCA/BMG Japan Inc., Tokyo. Made in Japan.
Catalog #: BVCP-21526 (88697-11523-2)
Style: Hard Rock, Heavy Metal
Year: 2007
Format: FLAC (image + .cue)
Bitrate: lossless
Covers: in archive
Amount of tracks: 14
Size ZIP: ~ 1 gb

Exact Audio Copy V1.0 beta 1 from 15. November 2010

EAC extraction logfile from 13. December 2010, 17:09

Scorpions / Humanity Hour I

Used drive : PIONEER DVD-RW DVR-112D Adapter: 2 ID: 0

Read mode : Secure
Utilize accurate stream : Yes
Defeat audio cache : Yes
Make use of C2 pointers : No

Read offset correction : 48
Overread into Lead-In and Lead-Out : No
Fill up missing offset samples with silence : Yes
Delete leading and trailing silent blocks : No
Null samples used in CRC calculations : Yes
Used interface : Installed external ASPI interface

Used output format : User Defined Encoder
Selected bitrate : 1024 kBit/s
Quality : High
Add ID3 tag : No
Command line compressor : C:\Program Files (x86)\Exact Audio Copy\Flac\flac.exe
Additional command line options : -5 -V -T "ARTIST=%a" -T "TITLE=%t" -T "ALBUM=%g" -T "DATE=%y" -T "TRACKNUMBER=%n" -T "GENRE=%m" -T "COMMENT=EAC FLAC -5" %s


TOC of the extracted CD

Track | Start | Length | Start sector | End sector
---------------------------------------------------------
1 | 0:00.00 | 3:26.51 | 0 | 15500
2 | 3:26.51 | 4:04.31 | 15501 | 33831
3 | 7:31.07 | 3:59.39 | 33832 | 51795
4 | 11:30.46 | 4:03.57 | 51796 | 70077
5 | 15:34.28 | 3:15.49 | 70078 | 84751
6 | 18:50.02 | 3:53.38 | 84752 | 102264
7 | 22:43.40 | 4:32.03 | 102265 | 122667
8 | 27:15.43 | 3:49.30 | 122668 | 139872
9 | 31:04.73 | 3:44.36 | 139873 | 156708
10 | 34:49.34 | 4:20.23 | 156709 | 176231
11 | 39:09.57 | 4:29.50 | 176232 | 196456
12 | 43:39.32 | 5:25.01 | 196457 | 220832
13 | 49:04.33 | 3:53.03 | 220833 | 238310
14 | 52:57.36 | 4:05.29 | 238311 | 256714


Range status and errors

Selected range

Filename F:\Scorpions (Japan)\2007 - Humanity • Hour I\Scorpions - Humanity Hour I.wav

Peak level 99.8 %
Extraction speed 0.5 X
Range quality 100.0 %
Test CRC 8E6DEF9C
Copy CRC 8E6DEF9C
Copy OK

No errors occurred


AccurateRip summary

Track 1 accurately ripped (confidence 5) [42A65B04]
Track 2 accurately ripped (confidence 5) [EC94497C]
Track 3 accurately ripped (confidence 5) [F327A12C]
Track 4 accurately ripped (confidence 5) [6831B8F2]
Track 5 accurately ripped (confidence 5) [FDF32422]
Track 6 accurately ripped (confidence 5) [39A03224]
Track 7 accurately ripped (confidence 5) [DD760892]
Track 8 accurately ripped (confidence 5) [5F7BD313]
Track 9 accurately ripped (confidence 5) [2E86FC2C]
Track 10 accurately ripped (confidence 5) [837B1E87]
Track 11 accurately ripped (confidence 5) [A26DB8F5]
Track 12 accurately ripped (confidence 5) [BF610B5F]
Track 13 accurately ripped (confidence 5) [0495FE66]
Track 14 accurately ripped (confidence 5) [3CFE8C68]

All tracks accurately ripped

End of status report
-----------------------

DON'T MODIFY THIS FILE

-----------------------

PERFORMER: auCDtect Task Manager, ver. 1.6.0 RC1 build 1.6.0.1
Copyright (c) 2008-2010 y-soft. All rights reserved


ANALYZER: auCDtect: CD records authenticity detector, version 0.8.2
Copyright (c) 2004 Oleg Berngardt. All rights reserved.
Copyright (c) 2004 Alexander Djourik. All rights reserved.


FILE: Scorpions - Humanity Hour I.flac
Size: 437619405 Hash: 94D3C936E33DEC3DD61252AC32F2D2CE Accuracy: -m0
Conclusion: CDDA 99%
Signature: 32A375AF4CB3169D44234C9059CAB0ABE6D87336
foobar2000 1.2.8 / Dynamic Range Meter 1.1.1
log date: 2013-09-10 14:50:27

--------------------------------------------------------------------------------
Analyzed: Scorpions / Humanity Hour I
--------------------------------------------------------------------------------

DR Peak RMS Duration Track
--------------------------------------------------------------------------------
DR5 -0.11 dB -6.20 dB 3:27 01-Hour I
DR6 -0.01 dB -6.74 dB 4:04 02-The Game Of Life
DR5 -0.11 dB -5.96 dB 4:00 03-We Were Born To Fly
DR5 -0.11 dB -7.18 dB 4:04 04-The Future Never Dies
DR5 -0.11 dB -6.92 dB 3:16 05-You're Lovin' Me To Death
DR5 -0.11 dB -6.07 dB 3:54 06-321
DR5 -0.11 dB -6.67 dB 4:32 07-Love Will Keep Us Alive
DR5 -0.11 dB -7.47 dB 3:49 08-We Will Rise Again
DR6 -0.11 dB -6.82 dB 3:44 09-Your Last Song
DR5 -0.11 dB -6.74 dB 4:20 10-Love Is War
DR5 -0.11 dB -6.88 dB 4:30 11-The Cross
DR5 -0.01 dB -6.88 dB 5:25 12-Humanity
DR5 -0.08 dB -7.27 dB 3:53 13-Cold
DR5 -0.11 dB -6.53 dB 4:05 14-Love Will Keep Us Alive (Radio Edit)
--------------------------------------------------------------------------------

Number of tracks: 14
Official DR value: DR5

Samplerate: 44100 Hz
Channels: 2
Bits per sample: 16
Bitrate: 1023 kbps
Codec: FLAC
================================================================================
01. Scorpions - Hour I [3:27]
02. Scorpions - The Game Of Life [4:04]
03. Scorpions - We Were Born To Fly [4:00]
04. Scorpions - The Future Never Dies [4:04]
05. Scorpions - You're Lovin' Me To Death [3:16]
06. Scorpions - 321 [3:54]
07. Scorpions - Love Will Keep Us Alive [4:32]
08. Scorpions - We Will Rise Again [3:49]
09. Scorpions - Your Last Song [3:44]
10. Scorpions - Love Is War [4:20]
11. Scorpions - The Cross [4:30]
12. Scorpions - Humanity [5:25]
-=Bonus Tracks=-
13. Scorpions - Cold [3:53]
14. Scorpions - Love Will Keep Us Alive (Radio Edit) [4:05]
------------------------------
Total time: [57:02]
Scorpions - Humanity


Для просмотра скрытого содержимого необходимо Войти или Зарегистрироваться.​
 
Последнее редактирование:

aheron

Гуру
Команда форума
Гуру
Сообщения
15,764
Реакции
18,985
Scorpions - Icon (2010)





Performer: Scorpions
Album: Icon
Label: Mercury/The Island Def Jam Music Group. Made in USA.
Catalog #: B0014884-02
Style: Hard Rock
Year: 2010 (Compilation)
Format: FLAC (image + .cue)
Bitrate: lossless
Covers: in archive
Amount of tracks: 12
Size ZIP: ~ 420 mb

Exact Audio Copy V1.0 beta 3 from 29. August 2011

EAC extraction logfile from 6. February 2012, 16:56

Scorpions / Icon (B0014884-02)

Used drive : _NEC DVD_RW ND-2500A Adapter: 0 ID: 1

Read mode : Secure
Utilize accurate stream : Yes
Defeat audio cache : Yes
Make use of C2 pointers : No

Read offset correction : 48
Overread into Lead-In and Lead-Out : No
Fill up missing offset samples with silence : Yes
Delete leading and trailing silent blocks : No
Null samples used in CRC calculations : Yes
Used interface : Installed external ASPI interface

Used output format : Internal WAV Routines
Sample format : 44.100 Hz; 16 Bit; Stereo


TOC of the extracted CD

Track | Start | Length | Start sector | End sector
---------------------------------------------------------
1 | 0:00.00 | 4:13.19 | 0 | 18993
2 | 4:13.19 | 3:57.21 | 18994 | 36789
3 | 8:10.40 | 5:30.00 | 36790 | 61539
4 | 13:40.40 | 6:28.05 | 61540 | 90644
5 | 20:08.45 | 4:10.07 | 90645 | 109401
6 | 24:18.52 | 5:23.66 | 109402 | 133692
7 | 29:42.43 | 3:49.38 | 133693 | 150905
8 | 33:32.06 | 3:22.54 | 150906 | 166109
9 | 36:54.60 | 4:43.45 | 166110 | 187379
10 | 41:38.30 | 5:11.74 | 187380 | 210778
11 | 46:50.29 | 5:25.12 | 210779 | 235165
12 | 52:15.41 | 3:58.12 | 235166 | 253027


Range status and errors

Selected range

Filename G:\bigggwest\Scorpions - Icon (B0014884-02).wav

Peak level 99.8 %
Extraction speed 3.0 X
Range quality 99.9 %
Test CRC EBFF2AFD
Copy CRC EBFF2AFD
Copy OK

No errors occurred


AccurateRip summary

Track 1 accurately ripped (confidence 2) [0F3C8F83] (AR v1)
Track 2 accurately ripped (confidence 2) [97C80A5C] (AR v1)
Track 3 accurately ripped (confidence 2) [6EACE89B] (AR v1)
Track 4 accurately ripped (confidence 2) [45EB4420] (AR v1)
Track 5 accurately ripped (confidence 2) [52496C0F] (AR v1)
Track 6 accurately ripped (confidence 2) [677D3286] (AR v1)
Track 7 accurately ripped (confidence 2) [EF9D64AE] (AR v1)
Track 8 accurately ripped (confidence 2) [38487FC9] (AR v1)
Track 9 accurately ripped (confidence 2) [227CA7FA] (AR v1)
Track 10 accurately ripped (confidence 2) [5047FE28] (AR v1)
Track 11 accurately ripped (confidence 2) [C34D0416] (AR v1)
Track 12 accurately ripped (confidence 2) [C251B60C] (AR v1)

All tracks accurately ripped

End of status report

==== Log checksum 070AE1E07A0101A51D0674229C7DE31351426FD9A399456763DD8EFEA8F6249C ====
-----------------------

DON'T MODIFY THIS FILE

-----------------------

PERFORMER: auCDtect Task Manager, ver. 1.6.0 RC1 build 1.6.0.1
Copyright (c) 2008-2010 y-soft. All rights reserved


ANALYZER: auCDtect: CD records authenticity detector, version 0.8.2
Copyright (c) 2004 Oleg Berngardt. All rights reserved.
Copyright (c) 2004 Alexander Djourik. All rights reserved.


FILE: Scorpions - Icon (B0014884-02).flac
Size: 409722946 Hash: F73D7AFC54B1D2CF33FE4241BFFBC125 Accuracy: -m0
Conclusion: CDDA 100%
Signature: D309F5BC13BF093DFBC41D9A83DDF30909DB3E09
foobar2000 1.2.8 / Dynamic Range Meter 1.1.1
log date: 2013-09-11 18:53:25

--------------------------------------------------------------------------------
Analyzed: Scorpions / Icon (B0014884-02)
--------------------------------------------------------------------------------

DR Peak RMS Duration Track
--------------------------------------------------------------------------------
DR8 -0.01 dB -8.90 dB 4:13 01-Rock You Like A Hurricane
DR8 -0.01 dB -9.57 dB 3:57 02-No One Like You
DR7 -0.03 dB -8.65 dB 5:30 03-The Zoo
DR8 -0.03 dB -10.70 dB 6:28 04-Still Loving You
DR7 -0.01 dB -8.70 dB 4:10 05-Big City Nights
DR9 -0.03 dB -10.41 dB 5:24 06-Believe In Love
DR8 -0.01 dB -10.10 dB 3:50 07-Rhythm Of Love
DR8 -0.01 dB -8.97 dB 3:23 08-I Can't Explain
DR7 -0.06 dB -8.57 dB 4:44 09-Tease me, Please Me
DR9 -0.01 dB -11.02 dB 5:12 10-Wind Of Change
DR5 -2.12 dB -8.99 dB 5:25 11-Humanity
DR7 -0.61 dB -8.74 dB 3:58 12-Raised On Rock
--------------------------------------------------------------------------------

Number of tracks: 12
Official DR value: DR8

Samplerate: 44100 Hz
Channels: 2
Bits per sample: 16
Bitrate: 971 kbps
Codec: FLAC
================================================================================
01. Scorpions - Rock You Like A Hurricane [4:13]
02. Scorpions - No One Like You [3:57]
03. Scorpions - The Zoo [5:30]
04. Scorpions - Still Loving You [6:28]
05. Scorpions - Big City Nights [4:10]
06. Scorpions - Believe In Love [5:24]
07. Scorpions - Rhythm Of Love [3:50]
08. Scorpions - I Can't Explain [3:23]
09. Scorpions - Tease me, Please Me [4:44]
10. Scorpions - Wind Of Change [5:12]
11. Scorpions - Humanity [5:25]
12. Scorpions - Raised On Rock [3:58]
------------------------------
Total time: [56:13]
Для просмотра скрытого содержимого необходимо Войти или Зарегистрироваться.​
 
Последнее редактирование модератором:

aheron

Гуру
Команда форума
Гуру
Сообщения
15,764
Реакции
18,985
Scorpions - Sting In The Tail (2010) [Japan]





Performer: Scorpions
Album: Sting In The Tail
Label: Sony Music Japan International Inc.. Made in Japan.
Catalog #: SICP 2670
Style: Hard Rock, Heavy Metal
Year: 2010
Format: FLAC (image + .cue)
Bitrate: lossless
Covers: in archive
Amount of tracks: 13
Size ZIP: ~ 884 mb

Exact Audio Copy V1.0 beta 1 from 15. November 2010

EAC extraction logfile from 13. December 2010, 17:31

Scorpions / Sting In The Tail

Used drive : PIONEER DVD-RW DVR-112D Adapter: 2 ID: 0

Read mode : Secure
Utilize accurate stream : Yes
Defeat audio cache : Yes
Make use of C2 pointers : No

Read offset correction : 48
Overread into Lead-In and Lead-Out : No
Fill up missing offset samples with silence : Yes
Delete leading and trailing silent blocks : No
Null samples used in CRC calculations : Yes
Used interface : Installed external ASPI interface

Used output format : User Defined Encoder
Selected bitrate : 1024 kBit/s
Quality : High
Add ID3 tag : No
Command line compressor : C:\Program Files (x86)\Exact Audio Copy\Flac\flac.exe
Additional command line options : -5 -V -T "ARTIST=%a" -T "TITLE=%t" -T "ALBUM=%g" -T "DATE=%y" -T "TRACKNUMBER=%n" -T "GENRE=%m" -T "COMMENT=EAC FLAC -5" %s


TOC of the extracted CD

Track | Start | Length | Start sector | End sector
---------------------------------------------------------
1 | 0:00.00 | 3:58.54 | 0 | 17903
2 | 3:58.54 | 3:12.69 | 17904 | 32372
3 | 7:11.48 | 2:45.10 | 32373 | 44757
4 | 9:56.58 | 5:14.32 | 44758 | 68339
5 | 15:11.15 | 3:24.14 | 68340 | 83653
6 | 18:35.29 | 3:17.53 | 83654 | 98481
7 | 21:53.07 | 4:32.68 | 98482 | 118949
8 | 26:26.00 | 4:24.50 | 118950 | 138799
9 | 30:50.50 | 3:22.04 | 138800 | 153953
10 | 34:12.54 | 5:16.56 | 153954 | 177709
11 | 39:29.35 | 3:42.56 | 177710 | 194415
12 | 43:12.16 | 4:32.44 | 194416 | 214859
13 | 47:44.60 | 4:33.34 | 214860 | 235368


Range status and errors

Selected range

Filename F:\Scorpions (Japan)\2010 - Sting In The Tail\Scorpions - Sting In The Tail.wav

Peak level 99.9 %
Extraction speed 0.6 X
Range quality 100.0 %
Test CRC BC47C993
Copy CRC BC47C993
Copy OK

No errors occurred


AccurateRip summary

Track 1 accurately ripped (confidence 5) [5A63B285]
Track 2 accurately ripped (confidence 5) [3CEE3719]
Track 3 accurately ripped (confidence 5) [5C1E677A]
Track 4 accurately ripped (confidence 5) [E50022D7]
Track 5 accurately ripped (confidence 5) [2AC7F68A]
Track 6 accurately ripped (confidence 5) [E72B278D]
Track 7 accurately ripped (confidence 5) [E481535A]
Track 8 accurately ripped (confidence 5) [427F5DD7]
Track 9 accurately ripped (confidence 5) [2FDF8454]
Track 10 accurately ripped (confidence 5) [62DF9C5A]
Track 11 accurately ripped (confidence 5) [E85B3E27]
Track 12 accurately ripped (confidence 5) [C013B32D]
Track 13 accurately ripped (confidence 5) [E2E4F92E]

All tracks accurately ripped

End of status report
-----------------------

DON'T MODIFY THIS FILE

-----------------------

PERFORMER: auCDtect Task Manager, ver. 1.6.0 RC1 build 1.6.0.1
Copyright (c) 2008-2010 y-soft. All rights reserved


ANALYZER: auCDtect: CD records authenticity detector, version 0.8.2
Copyright (c) 2004 Oleg Berngardt. All rights reserved.
Copyright (c) 2004 Alexander Djourik. All rights reserved.


FILE: Scorpions - Sting In The Tail.flac
Size: 398167086 Hash: 9ED535BCD181DC8A272F3345EE985F7C Accuracy: -m0
Conclusion: CDDA 100%
Signature: CE3F606F7DAAA5E343D2A295FB82665128293AEF
foobar2000 1.2.8 / Dynamic Range Meter 1.1.1
log date: 2013-09-10 16:18:39

--------------------------------------------------------------------------------
Analyzed: Scorpions / Sting In The Tail
--------------------------------------------------------------------------------

DR Peak RMS Duration Track
--------------------------------------------------------------------------------
DR7 -0.01 dB -8.14 dB 3:59 01-Raised On Rock
DR7 -0.01 dB -8.09 dB 3:13 02-Sting In The Tail
DR7 -0.01 dB -8.08 dB 2:45 03-Slave Me
DR7 -0.01 dB -8.34 dB 5:14 04-The Good Die Young
DR6 -0.01 dB -7.51 dB 3:24 05-No Limit
DR6 -0.01 dB -7.19 dB 3:18 06-Rock Zone
DR7 -0.01 dB -9.14 dB 4:33 07-Lorelei
DR7 -0.01 dB -7.44 dB 4:25 08-Turn You On
DR7 -0.01 dB -7.71 dB 3:22 09-Let's Rock
DR7 -0.01 dB -8.98 dB 5:17 10-Sly
DR7 -0.01 dB -7.87 dB 3:43 11-Spirit Of Rock
DR7 -0.01 dB -8.84 dB 4:33 12-The Best Is Yet To Come
DR6 -0.01 dB -7.92 dB 4:33 13-Thunder And Lightning
--------------------------------------------------------------------------------

Number of tracks: 13
Official DR value: DR7

Samplerate: 44100 Hz
Channels: 2
Bits per sample: 16
Bitrate: 1015 kbps
Codec: FLAC
================================================================================
01. Scorpions - Raised On Rock [3:59]
02. Scorpions - Sting In The Tail [3:13]
03. Scorpions - Slave Me [2:45]
04. Scorpions - The Good Die Young [5:14]
05. Scorpions - No Limit [3:24]
06. Scorpions - Rock Zone [3:18]
07. Scorpions - Lorelei [4:33]
08. Scorpions - Turn You On [4:25]
09. Scorpions - Let's Rock [3:22]
10. Scorpions - Sly [5:17]
11. Scorpions - Spirit Of Rock [3:43]
12. Scorpions - The Best Is Yet To Come [4:33]
-=Bonus Track For Japan=-
13. Scorpions - Thunder And Lightning [4:33]
------------------------------
Total time: [52:18]

Notes:
==============
℗&© 2010 Sony Music Entertainment Germany GmbH
Scorpions - Sting In The Tail


Для просмотра скрытого содержимого необходимо Войти или Зарегистрироваться.​
 
Последнее редактирование:

aheron

Гуру
Команда форума
Гуру
Сообщения
15,764
Реакции
18,985
Scorpions - Comeblack (2012) [Japan]





Performer: Scorpions
Album: Comeblack
Label: Sony Music Japan International Inc.. Made in Japan.
Catalog #: SICP 3373
Style: Hard Rock, Heavy Metal
Year: 2012
Format: FLAC (image + .cue)
Bitrate: lossless
Covers: in archive
Amount of tracks: 16
Size ZIP: ~ 1,15 gb

Exact Audio Copy V1.0 beta 3 from 29. August 2011

EAC extraction logfile from 19. February 2012, 20:30

Scorpions / Comeblack

Used drive : Optiarc BD RW BD-5300S Adapter: 3 ID: 0

Read mode : Secure
Utilize accurate stream : Yes
Defeat audio cache : Yes
Make use of C2 pointers : No

Read offset correction : 6
Overread into Lead-In and Lead-Out : No
Fill up missing offset samples with silence : Yes
Delete leading and trailing silent blocks : No
Null samples used in CRC calculations : Yes
Used interface : Installed external ASPI interface

Used output format : User Defined Encoder
Selected bitrate : 1024 kBit/s
Quality : High
Add ID3 tag : No
Command line compressor : C:\Program Files (x86)\Exact Audio Copy\Flac\flac.exe
Additional command line options : -V -8 -T "Date=%year%" -T "Genre=%genre%" %source%


TOC of the extracted CD

Track | Start | Length | Start sector | End sector
---------------------------------------------------------
1 | 0:00.00 | 3:39.35 | 0 | 16459
2 | 3:39.35 | 4:07.47 | 16460 | 35031
3 | 7:47.07 | 5:38.54 | 35032 | 60435
4 | 13:25.61 | 4:16.71 | 60436 | 79706
5 | 17:42.57 | 3:51.17 | 79707 | 97048
6 | 21:33.74 | 5:10.03 | 97049 | 120301
7 | 26:44.02 | 6:44.59 | 120302 | 150660
8 | 33:28.61 | 3:28.08 | 150661 | 166268
9 | 36:56.69 | 3:35.24 | 166269 | 182417
10 | 40:32.18 | 3:19.14 | 182418 | 197356
11 | 43:51.32 | 3:15.19 | 197357 | 212000
12 | 47:06.51 | 3:16.55 | 212001 | 226755
13 | 50:23.31 | 3:55.30 | 226756 | 244410
14 | 54:18.61 | 3:53.02 | 244411 | 261887
15 | 58:11.63 | 6:43.23 | 261888 | 292135
16 | 64:55.11 | 3:20.14 | 292136 | 307149


Range status and errors

Selected range

Filename F:\2012 - Comeblack\Scorpions - Comeblack.wav

Peak level 97.7 %
Extraction speed 8.5 X
Range quality 100.0 %
Test CRC 9D51EEF8
Copy CRC 9D51EEF8
Copy OK

No errors occurred


AccurateRip summary

Track 1 not present in database
Track 2 not present in database
Track 3 not present in database
Track 4 not present in database
Track 5 not present in database
Track 6 not present in database
Track 7 not present in database
Track 8 not present in database
Track 9 not present in database
Track 10 not present in database
Track 11 not present in database
Track 12 not present in database
Track 13 not present in database
Track 14 not present in database
Track 15 not present in database
Track 16 not present in database

None of the tracks are present in the AccurateRip database

End of status report

==== Log checksum 048EAAAE46FBF90BFAAC9BF2C060E8A64DFFB4295D934AB669F5B913029C4463 ====
-----------------------

DON'T MODIFY THIS FILE

-----------------------

PERFORMER: auCDtect Task Manager, ver. 1.6.0 RC1 build 1.6.0.1
Copyright (c) 2008-2010 y-soft. All rights reserved


ANALYZER: auCDtect: CD records authenticity detector, version 0.8.2
Copyright (c) 2004 Oleg Berngardt. All rights reserved.
Copyright (c) 2004 Alexander Djourik. All rights reserved.


FILE: Scorpions - Comeblack.flac
Size: 520693311 Hash: 9E6AC2BB8A3984D70512ABE007F7D626 Accuracy: -m0
Conclusion: CDDA 100%
Signature: A24FAEB82608A7573186AB449BE67F1423CBD642
foobar2000 1.2.8 / Dynamic Range Meter 1.1.1
log date: 2013-09-10 17:16:42

--------------------------------------------------------------------------------
Analyzed: Scorpions / Comeblack
--------------------------------------------------------------------------------

DR Peak RMS Duration Track
--------------------------------------------------------------------------------
DR6 -0.20 dB -7.99 dB 3:39 01-Rhythm Of Love
DR7 -0.20 dB -8.90 dB 4:08 02-No One Like You
DR7 -0.20 dB -9.69 dB 5:39 03-The Zoo
DR5 -0.20 dB -7.22 dB 4:17 04-Rock You Like A Hurricane
DR7 -0.20 dB -7.72 dB 3:51 05-Blackout
DR6 -0.20 dB -8.79 dB 5:10 06-Wind Of Change
DR6 -0.20 dB -8.02 dB 6:45 07-Still Loving You
DR7 -0.20 dB -8.01 dB 3:28 08-Tainted Love
DR6 -0.20 dB -7.49 dB 3:35 09-Children Of The Revolution
DR7 -0.20 dB -10.04 dB 3:19 10-Across The Universe
DR7 -0.20 dB -8.89 dB 3:15 11-Tin Soldier
DR6 -0.20 dB -8.05 dB 3:17 12-All Day And All Of The Night
DR6 -0.20 dB -9.31 dB 3:55 13-Ruby Tuesday
DR6 -0.20 dB -7.25 dB 3:53 14-Big City Nights
DR6 -0.30 dB -7.83 dB 6:43 15-Still Loving You - Je T'aime Encore
DR7 -0.20 dB -8.22 dB 3:20 16-Shapes Of Things
--------------------------------------------------------------------------------

Number of tracks: 16
Official DR value: DR6

Samplerate: 44100 Hz
Channels: 2
Bits per sample: 16
Bitrate: 1017 kbps
Codec: FLAC
================================================================================
01. Scorpions - Rhythm Of Love [3:39]
02. Scorpions - No One Like You [4:08]
03. Scorpions - The Zoo [5:39]
04. Scorpions - Rock You Like A Hurricane [4:17]
05. Scorpions - Blackout [3:51]
06. Scorpions - Wind Of Change [5:10]
07. Scorpions - Still Loving You [6:45]
08. Scorpions - Tainted Love [3:28]
09. Scorpions - Children Of The Revolution [3:35]
10. Scorpions - Across The Universe [3:19]
11. Scorpions - Tin Soldier [3:15]
12. Scorpions - All Day And All Of The Night [3:17]
13. Scorpions - Ruby Tuesday [3:55]
14. Scorpions - Big City Nights [3:53]
15. Scorpions - Still Loving You - Je T'aime Encore [6:43]
16. Scorpions - Shapes Of Things [3:20]
------------------------------
Total time: [1:08:15]
Promo Video


Для просмотра скрытого содержимого необходимо Войти или Зарегистрироваться.​
 
Последнее редактирование модератором:

aheron

Гуру
Команда форума
Гуру
Сообщения
15,764
Реакции
18,985
Scorpions - Gold Ballads (1984)





Performer: Scorpions
Album: Gold Ballads
Label: Harvest/EMI. Made in Europe.
Catalog #: CDP 538-7 91015 2, CDP 791015 2
Style: Hard Rock
Year: 1984 (Compilation)
Format: FLAC (image + .cue)
Bitrate: lossless
Covers: in archive
Amount of tracks: 5
Size ZIP: ~ 173 mb

Exact Audio Copy V1.0 beta 3 from 29. August 2011

Отчёт EAC об извлечении, выполненном 18. сентября 2014, 21:07

Scorpions / Gold Ballads

Дисковод: PIONEER DVD-RW DVR-220L Adapter: 0 ID: 0

Режим чтения : Достоверность
Использование точного потока : Да
Отключение кэша аудио : Да
Использование указателей C2 : Нет

Коррекция смещения при чтении : 6
Способность читать области Lead-in и Lead-out : Нет
Заполнение пропущенных сэмплов тишиной : Да
Удаление блоков с тишиной в начале и конце : Нет
При вычислениях CRC использовались нулевые сэмплы : Да
Интерфейс : Встроенный Win32-интерфейс для Win NT/2000

Выходной формат : Внутренние WAV-операции
Формат сэмплов : 44.100 Гц; 16 бит; стерео


TOC извлечённого CD

Трек | Старт | Длительность | Начальный сектор | Конечный сектор
---------------------------------------------------------------------
1 | 0:00.32 | 6:30.73 | 32 | 29354
2 | 6:31.30 | 6:37.62 | 29355 | 59191
3 | 13:09.17 | 3:53.73 | 59192 | 76739
4 | 17:03.15 | 5:00.67 | 76740 | 99306
5 | 22:04.07 | 6:16.63 | 99307 | 127569


Характеристики диапазона извлечения и сообщения об ошибках

Выбранный диапазон

Имя файла D:\! Tracker\Music\Scorpions\1984 - Gold Ballads\1984 - Gold Ballads.wav

Пиковый уровень 98.6 %
Скорость извлечения 3.8 X
Качество диапазона 100.0 %
CRC теста 5AE43DE3
CRC копии 5AE43DE3
Копирование... OK

Ошибок не произошло


AccurateRip: сводка

Трек 1 : извлечено точно (доверие 34) [6638743D] (AR v2)
Трек 2 : извлечено точно (доверие 35) [523BF820] (AR v2)
Трек 3 : извлечено точно (доверие 36) [8BEF85EA] (AR v2)
Трек 4 : извлечено точно (доверие 35) [3E72F01F] (AR v2)
Трек 5 : извлечено точно (доверие 32) [68B4D691] (AR v2)

Все треки извлечены точно

Конец отчёта
-----------------------

DON'T MODIFY THIS FILE

-----------------------

PERFORMER: auCDtect Task Manager, ver. 1.6.0 RC1 build 1.6.0.1
Copyright (c) 2008-2010 y-soft. All rights reserved


ANALYZER: auCDtect: CD records authenticity detector, version 0.8.2
Copyright (c) 2004 Oleg Berngardt. All rights reserved.
Copyright (c) 2004 Alexander Djourik. All rights reserved.


FILE: 1984 - Gold Ballads.flac
Size: 163116355 Hash: 70A7FC95E980D29A52FDDDE4CE5A6CB9 Accuracy: -m0
Conclusion: MPEG 95%
Signature: 70EDBE5DD4B24FF3F4C704EB13D4831199A3D7D4
foobar2000 1.3.3 / Dynamic Range Meter 1.1.1
log date: 2014-10-10 00:27:06

--------------------------------------------------------------------------------
Analyzed: Scorpions / Gold Ballads
--------------------------------------------------------------------------------

DR Peak RMS Duration Track
--------------------------------------------------------------------------------
DR12 -0.63 dB -15.68 dB 6:31 01-Still Loving You
DR12 -0.61 dB -18.32 dB 6:38 02-Holiday
DR12 -2.29 dB -16.61 dB 3:54 03-When The Smoke Is Going Down
DR11 -0.12 dB -14.79 dB 5:01 04-Always Somewhere
DR14 -0.38 dB -19.75 dB 6:17 05-Lady Starlight
--------------------------------------------------------------------------------

Number of tracks: 5
Official DR value: DR12

Samplerate: 44100 Hz
Channels: 2
Bits per sample: 16
Bitrate: 767 kbps
Codec: FLAC
================================================================================
01. Scorpions - Still Loving You [6:31]
02. Scorpions - Holiday [6:38]
03. Scorpions - When The Smoke Is Going Down [3:54]
04. Scorpions - Always Somewhere [5:01]
05. Scorpions - Lady Starlight [6:17]
--------------------------
Total time: [28:21]


Notes:
================
Phonographic Copyright (p) – Breeze Music
Made in Holland. (on cd)
Scorpions - Still Loving You


Для просмотра скрытого содержимого необходимо Войти или Зарегистрироваться.​
 
Последнее редактирование модератором:

aheron

Гуру
Команда форума
Гуру
Сообщения
15,764
Реакции
18,985
Scorpions - The Original Scorpions (1972) [Japan 1986]





Performer: Scorpions
Album: The Original Scorpions
Label: Brain (Metronome)/Polystar. Made in Japan.
Catalog #: P33X-20003
Style: Progressive Rock
Year: 1972 (Edition 1986)
Format: FLAC (image + .cue)
Bitrate: lossless
Covers: in archive
Amount of tracks: 7
Size ZIP: ~ 282 mb

Exact Audio Copy V1.0 beta 3 from 29. August 2011

Отчёт EAC об извлечении, выполненном 9. октября 2014, 22:07

Scorpions / The Original Scorpions

Дисковод: PIONEER DVD-RW DVR-220L Adapter: 0 ID: 0

Режим чтения : Достоверность
Использование точного потока : Да
Отключение кэша аудио : Да
Использование указателей C2 : Нет

Коррекция смещения при чтении : 6
Способность читать области Lead-in и Lead-out : Нет
Заполнение пропущенных сэмплов тишиной : Да
Удаление блоков с тишиной в начале и конце : Нет
При вычислениях CRC использовались нулевые сэмплы : Да
Интерфейс : Встроенный Win32-интерфейс для Win NT/2000

Выходной формат : Внутренние WAV-операции
Формат сэмплов : 44.100 Гц; 16 бит; стерео


TOC извлечённого CD

Трек | Старт | Длительность | Начальный сектор | Конечный сектор
---------------------------------------------------------------------
1 | 0:00.37 | 3:56.58 | 37 | 17794
2 | 3:57.20 | 3:27.32 | 17795 | 33351
3 | 7:24.52 | 13:33.30 | 33352 | 94356
4 | 20:58.07 | 4:56.15 | 94357 | 116571
5 | 25:54.22 | 5:06.30 | 116572 | 139551
6 | 31:00.52 | 5:01.20 | 139552 | 162146
7 | 36:01.72 | 4:40.60 | 162147 | 183206


Характеристики диапазона извлечения и сообщения об ошибках

Выбранный диапазон

Имя файла D:\! Tracker\Music\Scorpions\Scorpions Collection by mewzik\1972 - The Original Scorpions\1972 - The Original Scorpions.wav

Пиковый уровень 99.6 %
Скорость извлечения 7.3 X
Качество диапазона 100.0 %
CRC теста 1AB6F5F1
CRC копии 1AB6F5F1
Копирование... OK

Ошибок не произошло


AccurateRip: сводка

Трек 1 точность не определена (достоверность 3) [61A9DCC8], AccurateRip вернул [2A7762BA] (AR v2)
Трек 2 точность не определена (достоверность 3) [66D5AD70], AccurateRip вернул [5912FEFA] (AR v2)
Трек 3 точность не определена (достоверность 3) [3FB2DC5E], AccurateRip вернул [A6416996] (AR v2)
Трек 4 точность не определена (достоверность 3) [C82BBCBF], AccurateRip вернул [832696E6] (AR v2)
Трек 5 точность не определена (достоверность 3) [9D1F3C78], AccurateRip вернул [A87086A9] (AR v2)
Трек 6 точность не определена (достоверность 3) [28473C9C], AccurateRip вернул [E709898F] (AR v2)
Трек 7 точность не определена (достоверность 3) [FBA82E4B], AccurateRip вернул [BD28CC7D] (AR v2)

Ни один трек не прошёл проверки на точность
В вашей базе может быть иной вариант штамповки диска

Конец отчёта
-----------------------

DON'T MODIFY THIS FILE

-----------------------

PERFORMER: auCDtect Task Manager, ver. 1.6.0 RC1 build 1.6.0.1
Copyright (c) 2008-2010 y-soft. All rights reserved


ANALYZER: auCDtect: CD records authenticity detector, version 0.8.2
Copyright (c) 2004 Oleg Berngardt. All rights reserved.
Copyright (c) 2004 Alexander Djourik. All rights reserved.


FILE: 1972 - The Original Scorpions.flac
Size: 263795441 Hash: 85E2F955AB597B92B19A4732FCE101A0 Accuracy: -m0
Conclusion: CDDA 100%
Signature: BF49E3E08874F1308716EF8C3F69A0BD4C915905
foobar2000 1.3.5 / Dynamic Range Meter 1.1.1
log date: 2014-11-17 17:39:32

--------------------------------------------------------------------------------
Analyzed: Scorpions / The Original Scorpions
--------------------------------------------------------------------------------

DR Peak RMS Duration Track
--------------------------------------------------------------------------------
DR9 -1.59 dB -13.15 dB 3:57 01-Action
DR11 -0.44 dB -13.56 dB 3:27 02-It All Depends
DR11 -0.03 dB -13.96 dB 13:33 03-Lonesome Crow
DR10 -1.21 dB -13.67 dB 4:56 04-I'm Goin' Mad
DR10 -0.95 dB -13.81 dB 5:06 05-Leave Me
DR11 -0.66 dB -15.31 dB 5:01 06-In Search Of The Peace Of Mind
DR11 -0.74 dB -13.50 dB 4:41 07-Inheritance
--------------------------------------------------------------------------------

Number of tracks: 7
Official DR value: DR10

Samplerate: 44100 Hz
Channels: 2
Bits per sample: 16
Bitrate: 864 kbps
Codec: FLAC
================================================================================
01. Scorpions - Action [3:57]
02. Scorpions - It All Depends [3:27]
03. Scorpions - Lonesome Crow [13:33]
04. Scorpions - I'm Goin' Mad [4:56]
05. Scorpions - Leave Me [5:06]
06. Scorpions - In Search Of The Peace Of Mind [5:01]
07. Scorpions - Inheritance [4:41]
--------------------------
Total time: [40:42]

Notes:
=====================
Japan 1st press Lonesome Crow
Для просмотра скрытого содержимого необходимо Войти или Зарегистрироваться.​
 
Последнее редактирование модератором:

aheron

Гуру
Команда форума
Гуру
Сообщения
15,764
Реакции
18,985
Scorpions - Still Loving You - The Best Of (1997)





Performer: Scorpions
Album: Still Loving You - The Best Of
Label: EMI Music/La Si Belle Musique. Made in France.
Catalog #: 856065 2, 856 065 2
Style: Hard Rock, Pop Rock, Ballad
Year: 1997 (Compilation)
Format: FLAC (image + .cue)
Bitrate: lossless
Covers: in archive
Amount of tracks: 17
Size ZIP: ~ 537 mb

Exact Audio Copy V1.0 beta 3 from 29. August 2011

Отчёт EAC об извлечении, выполненном 20. сентября 2014, 21:53

Scorpions / Still Loving You - The Best Of

Дисковод: PIONEER DVD-RW DVR-220L Adapter: 0 ID: 0

Режим чтения : Достоверность
Использование точного потока : Да
Отключение кэша аудио : Да
Использование указателей C2 : Нет

Коррекция смещения при чтении : 6
Способность читать области Lead-in и Lead-out : Нет
Заполнение пропущенных сэмплов тишиной : Да
Удаление блоков с тишиной в начале и конце : Нет
При вычислениях CRC использовались нулевые сэмплы : Да
Интерфейс : Встроенный Win32-интерфейс для Win NT/2000

Выходной формат : Внутренние WAV-операции
Формат сэмплов : 44.100 Гц; 16 бит; стерео


TOC извлечённого CD

Трек | Старт | Длительность | Начальный сектор | Конечный сектор
---------------------------------------------------------------------
1 | 0:00.00 | 4:43.10 | 0 | 21234
2 | 4:43.10 | 3:35.55 | 21235 | 37414
3 | 8:18.65 | 3:58.20 | 37415 | 55284
4 | 12:17.10 | 4:50.57 | 55285 | 77091
5 | 17:07.67 | 3:52.68 | 77092 | 94559
6 | 21:00.60 | 3:57.17 | 94560 | 112351
7 | 24:58.02 | 3:47.13 | 112352 | 129389
8 | 28:45.15 | 6:28.35 | 129390 | 158524
9 | 35:13.50 | 4:13.20 | 158525 | 177519
10 | 39:26.70 | 4:08.55 | 177520 | 196174
11 | 43:35.50 | 3:50.17 | 196175 | 213441
12 | 47:25.67 | 5:24.10 | 213442 | 237751
13 | 52:50.02 | 4:00.45 | 237752 | 255796
14 | 56:50.47 | 7:09.48 | 255797 | 288019
15 | 64:00.20 | 5:12.70 | 288020 | 311489
16 | 69:13.15 | 4:53.27 | 311490 | 333491
17 | 74:06.42 | 3:38.10 | 333492 | 349851


Характеристики диапазона извлечения и сообщения об ошибках

Выбранный диапазон

Имя файла D:\! Tracker\Music\Scorpions\Scorpions Collection by mewzik\1997 - Still Loving You - The Best Of\1997 - Still Loving You - The Best Of.wav

Пиковый уровень 89.1 %
Скорость извлечения 4.8 X
Качество диапазона 99.9 %
CRC теста 296942E6
CRC копии 296942E6
Копирование... OK

Ошибок не произошло


AccurateRip: сводка

Трек 1 : извлечено точно (доверие 12) [C7668FBD] (AR v2)
Трек 2 : извлечено точно (доверие 12) [69509105] (AR v2)
Трек 3 : извлечено точно (доверие 12) [E093FBDF] (AR v2)
Трек 4 : извлечено точно (доверие 12) [CFB6F000] (AR v2)
Трек 5 : извлечено точно (доверие 12) [7F9F44F8] (AR v2)
Трек 6 : извлечено точно (доверие 12) [00B4C2CD] (AR v2)
Трек 7 : извлечено точно (доверие 12) [886A107D] (AR v2)
Трек 8 : извлечено точно (доверие 12) [3BC6DB42] (AR v2)
Трек 9 : извлечено точно (доверие 12) [1C7DAF15] (AR v2)
Трек 10 : извлечено точно (доверие 12) [8CABFEEC] (AR v2)
Трек 11 : извлечено точно (доверие 12) [440849E7] (AR v2)
Трек 12 : извлечено точно (доверие 12) [B297BCFF] (AR v2)
Трек 13 : извлечено точно (доверие 12) [E6E26135] (AR v2)
Трек 14 : извлечено точно (доверие 12) [A601406E] (AR v2)
Трек 15 : извлечено точно (доверие 12) [42AEB739] (AR v2)
Трек 16 : извлечено точно (доверие 11) [329C3420] (AR v2)
Трек 17 : извлечено точно (доверие 12) [1037EA35] (AR v2)

Все треки извлечены точно

Конец отчёта
-----------------------

DON'T MODIFY THIS FILE

-----------------------

PERFORMER: auCDtect Task Manager, ver. 1.6.0 RC1 build 1.6.0.1
Copyright (c) 2008-2010 y-soft. All rights reserved


ANALYZER: auCDtect: CD records authenticity detector, version 0.8.2
Copyright (c) 2004 Oleg Berngardt. All rights reserved.
Copyright (c) 2004 Alexander Djourik. All rights reserved.


FILE: 1997 - Still Loving You - The Best Of.flac
Size: 540181387 Hash: A83CEF75F6E15CA067304275A35B3ACB Accuracy: -m0
Conclusion: CDDA 100%
Signature: AEE5003F1813BDBBFA16A2CF9EE9E9A1564F453E
foobar2000 1.3.5 / Dynamic Range Meter 1.1.1
log date: 2014-11-17 18:02:33

--------------------------------------------------------------------------------
Analyzed: Scorpions / Still Loving You - The Best Of
--------------------------------------------------------------------------------

DR Peak RMS Duration Track
--------------------------------------------------------------------------------
DR10 -1.00 dB -14.20 dB 4:43 01-In Trance
DR9 -1.00 dB -11.11 dB 3:36 02-Catch Your Train
DR12 -1.00 dB -14.36 dB 3:58 03-Is There Anybody There?
DR9 -1.00 dB -10.58 dB 4:51 04-Lovedrive
DR10 -1.00 dB -12.82 dB 3:53 05-Make It Real
DR12 -1.00 dB -14.18 dB 3:57 06-No One Like You
DR11 -1.00 dB -12.62 dB 3:47 07-Can't Live Without You
DR8 -1.00 dB -12.28 dB 6:28 08-Still Loving You
DR13 -1.00 dB -15.45 dB 4:13 09-Rock You Like A Hurricane
DR12 -1.00 dB -14.07 dB 4:09 10-Big City Nights
DR11 -1.00 dB -13.53 dB 3:50 11-Rhythm Of Love
DR10 -1.00 dB -12.85 dB 5:24 12-Believe In Love
DR11 -1.00 dB -13.76 dB 4:01 13-Passion Rules The Game
DR8 -1.00 dB -11.35 dB 7:10 14-Living For Tomorrow
DR9 -1.00 dB -12.73 dB 5:13 15-Wind Of Change
DR8 -1.00 dB -10.19 dB 4:53 16-Under The Same Sun
DR7 -1.00 dB -9.64 dB 3:38 17-Edge Of Time (Radio Edit)
--------------------------------------------------------------------------------

Number of tracks: 17
Official DR value: DR10

Samplerate: 44100 Hz
Channels: 2
Bits per sample: 16
Bitrate: 926 kbps
Codec: FLAC
================================================================================
01. Scorpions - In Trance [4:43]
02. Scorpions - Catch Your Train [3:36]
03. Scorpions - Is There Anybody There? [3:58]
04. Scorpions - Lovedrive [4:51]
05. Scorpions - Make It Real [3:53]
06. Scorpions - No One Like You [3:57]
07. Scorpions - Can't Live Without You [3:47]
08. Scorpions - Still Loving You [6:28]
09. Scorpions - Rock You Like A Hurricane [4:13]
10. Scorpions - Big City Nights [4:09]
11. Scorpions - Rhythm Of Love [3:50]
12. Scorpions - Believe In Love [5:24]
13. Scorpions - Passion Rules The Game [4:01]
14. Scorpions - Living For Tomorrow [7:10]
15. Scorpions - Wind Of Change [5:13]
16. Scorpions - Under The Same Sun [4:53]
17. Scorpions - Edge Of Time (Radio Edit) [3:38]
--------------------------
Total time: [1:17:44]
Для просмотра скрытого содержимого необходимо Войти или Зарегистрироваться.​
 
Последнее редактирование модератором:

aheron

Гуру
Команда форума
Гуру
Сообщения
15,764
Реакции
18,985
Scorpions - Blackout (1982) [Remastered 2014]





Performer: Scorpions
Album: Blackout
Label: Island/Audio Fidelity. Made in US.
Catalog #: AFZ 164
Style: Hard Rock, Heavy Metal
Year: 1982 (Remastered 2014)
Format: FLAC (image + .cue)
Bitrate: lossless
Covers: in archive
Amount of tracks: 11
Size ZIP: ~ 382 mb

Exact Audio Copy V1.0 beta 2 from 29. April 2011

EAC extraction logfile from 24. November 2014, 21:47

Scorpions / Blackout [2014 Audio Fidelity SACD AFZ 164]

Used drive : HL-DT-STBD-RE BH14NS40 Adapter: 0 ID: 2

Read mode : Secure
Utilize accurate stream : Yes
Defeat audio cache : Yes
Make use of C2 pointers : No

Read offset correction : 6
Overread into Lead-In and Lead-Out : No
Fill up missing offset samples with silence : Yes
Delete leading and trailing silent blocks : No
Null samples used in CRC calculations : Yes
Used interface : Native Win32 interface for Win NT & 2000

Used output format : User Defined Encoder
Selected bitrate : 1024 kBit/s
Quality : High
Add ID3 tag : No
Command line compressor : C:\Program Files (x86)\Exact Audio Copy\Flac\flac.exe
Additional command line options : -V -5 -T "artist=%albumartist%" -T "title=%title%" -T "album=%albumtitle%" -T "date=%year%" -T "genre=%genre%" -T "tracknumber=%tracknr%" %source%


TOC of the extracted CD

Track | Start | Length | Start sector | End sector
---------------------------------------------------------
1 | 0:00.17 | 3:48.71 | 17 | 17187
2 | 3:49.13 | 3:46.48 | 17188 | 34185
3 | 7:35.61 | 3:56.65 | 34186 | 51950
4 | 11:32.51 | 3:38.29 | 51951 | 68329
5 | 15:11.05 | 2:33.41 | 68330 | 79845
6 | 17:44.46 | 4:12.15 | 79846 | 98760
7 | 21:56.61 | 3:55.25 | 98761 | 116410
8 | 25:52.11 | 6:58.08 | 116411 | 147768
9 | 32:50.19 | 3:55.01 | 147769 | 165394


Range status and errors

Selected range

Filename C:\EAC\Scorpions - (1982) Blackout [2014 Audio Fidelity SACD AFZ 164]\Scorpions - Blackout [2014 Audio Fidelity SACD AFZ 164].wav

Peak level 100.0 %
Extraction speed 4.3 X
Range quality 100.0 %
Test CRC 747A4652
Copy CRC 747A4652
Copy OK

No errors occurred


AccurateRip summary

Track 1 not present in database
Track 2 not present in database
Track 3 not present in database
Track 4 not present in database
Track 5 not present in database
Track 6 not present in database
Track 7 not present in database
Track 8 not present in database
Track 9 not present in database

None of the tracks are present in the AccurateRip database

End of status report

==== Log checksum 55A60A179BFBCB0A594FF0D3CCF3D75E1FC2706D9777DBE0E0DFFA7BC91D37A8 ====
-----------------------

DON'T MODIFY THIS FILE

-----------------------

PERFORMER: auCDtect Task Manager, ver. 1.6.0 RC1 build 1.6.0.1
Copyright (c) 2008-2010 y-soft. All rights reserved


ANALYZER: auCDtect: CD records authenticity detector, version 0.8.2
Copyright (c) 2004 Oleg Berngardt. All rights reserved.
Copyright (c) 2004 Alexander Djourik. All rights reserved.


FILE: Scorpions - Blackout [2014 Audio Fidelity SACD AFZ 164].flac
Size: 251142801 Hash: 3989D3A27C3D1C7906F54901D3AD2A0E Accuracy: -m0
Conclusion: CDDA 99%
Signature: 842DC031C4629E1D55E9F2744D0F8DE815FF4FAF
foobar2000 1.3.6 / Dynamic Range Meter 1.1.1
log date: 2014-12-27 14:34:01

--------------------------------------------------------------------------------
Analyzed: Scorpions / Blackout [2014 Audio Fidelity SACD AFZ 164]
--------------------------------------------------------------------------------

DR Peak RMS Duration Track
--------------------------------------------------------------------------------
DR12 -0.47 dB -14.02 dB 3:49 01-Blackout
DR12 -1.36 dB -15.01 dB 3:47 02-Can't Live Without You
DR14 0.00 dB -15.20 dB 3:57 03-No One Like You
DR13 -0.93 dB -15.91 dB 3:38 04-You Give Me All I Need
DR11 -1.14 dB -13.71 dB 2:34 05-Now!
DR12 -0.90 dB -14.38 dB 4:12 06-Dynamite
DR13 -0.97 dB -15.64 dB 3:55 07-Arizona
DR12 -0.06 dB -13.97 dB 6:58 08-China White
DR12 -0.32 dB -14.55 dB 3:55 09-When The Smoke Is Going Down
--------------------------------------------------------------------------------

Number of tracks: 9
Official DR value: DR12

Samplerate: 44100 Hz
Channels: 2
Bits per sample: 16
Bitrate: 911 kbps
Codec: FLAC
================================================================================
01. Scorpions - Blackout [3:49]
02. Scorpions - Can't Live Without You [3:47]
03. Scorpions - No One Like You [3:57]
04. Scorpions - You Give Me All I Need [3:38]
05. Scorpions - Now! [2:34]
06. Scorpions - Dynamite [4:12]
07. Scorpions - Arizona [3:55]
08. Scorpions - China White [6:58]
09. Scorpions - When The Smoke Is Going Down [3:55]
--------------------------
Total time: [36:45]


Notes:
=====================
SACD, Hybrid, Album, Limited Edition, Numbered, Remastered
Disc made in Austria

Basic tracks recorded at "Villa San Pecaïre", St. Jacques-Grasse, Southern France
Additional recordings and mix at Dierks Studios, Cologne
Для просмотра скрытого содержимого необходимо Войти или Зарегистрироваться.​
 
Последнее редактирование модератором:

aheron

Гуру
Команда форума
Гуру
Сообщения
15,764
Реакции
18,985
Scorpions - Return To Forever (2015) [Japan]





Performer: Scorpions
Album: Return To Forever
Label: RCA/SevenOne Music/Sony Music. Made in Japan.
Catalog #: SICP 30719
Style: Hard Rock
Year: 2015 (Blu-spec CD2, Deluxe Edition, Limited Edition)
Format: FLAC (image + .cue)
Bitrate: lossless
Covers: in archive
Amount of tracks: 18
Size ZIP: ~ 877 mb

Exact Audio Copy V1.0 beta 4 from 7. December 2014

Отчёт EAC об извлечении, выполненном 10. марта 2015, 22:31

Scorpions / Return To Forever [Jpn RCA/SevenOne MUSIC/Sony SICP 30719]

Дисковод: SlimtypeDVD A DS8A5SH Adapter: 1 ID: 0

Режим чтения : Достоверность
Использование точного потока : Да
Отключение кэша аудио : Да
Использование указателей C2 : Нет

Коррекция смещения при чтении : 6
Способность читать области Lead-in и Lead-out : Нет
Заполнение пропущенных сэмплов тишиной : Да
Удаление блоков с тишиной в начале и конце : Нет
При вычислениях CRC использовались нулевые сэмплы : Да
Интерфейс : Встроенный Win32-интерфейс для Win NT/2000

Выходной формат : Пользовательский кодировщик
Выбранный битрейт : 1024 kBit/s
Качество : Высокий
Добавление ID3-тега : Нет
Утилита сжатия : C:\Program Files (x86)\Exact Audio Copy\FLAC\FLAC.EXE
Дополнительные параметры : -V -8 -T "Date=%year%" -T "Genre=%genre%" %source%


TOC извлечённого CD

Трек | Старт | Длительность | Начальный сектор | Конечный сектор
---------------------------------------------------------------------
1 | 0:00.00 | 3:47.26 | 0 | 17050
2 | 3:47.26 | 3:53.67 | 17051 | 34592
3 | 7:41.18 | 3:20.60 | 34593 | 49652
4 | 11:02.03 | 5:05.51 | 49653 | 72578
5 | 16:07.54 | 2:58.18 | 72579 | 85946
6 | 19:05.72 | 3:54.62 | 85947 | 103558
7 | 23:00.59 | 3:33.17 | 103559 | 119550
8 | 26:34.01 | 4:03.59 | 119551 | 137834
9 | 30:37.60 | 4:06.72 | 137835 | 156356
10 | 34:44.57 | 4:27.67 | 156357 | 176448
11 | 39:12.49 | 3:41.34 | 176449 | 193057
12 | 42:54.08 | 4:51.71 | 193058 | 214953
13 | 47:46.04 | 3:51.65 | 214954 | 232343
14 | 51:37.69 | 3:42.13 | 232344 | 249006
15 | 55:20.07 | 4:27.39 | 249007 | 269070
16 | 59:47.46 | 2:33.60 | 269071 | 280605
17 | 62:21.31 | 4:22.52 | 280606 | 300307
18 | 66:44.08 | 4:21.47 | 300308 | 319929


Характеристики диапазона извлечения и сообщения об ошибках

Выбранный диапазон

Имя файла C:\Users\UncleVasia\Desktop\Scorpions 2015 'Return To Forever' [Jpn RCA SevenOne MUSIC Sony SICP 30719]\Scorpions - Return To Forever [Jpn RCA,SevenOne MUSIC,Sony SICP 30719].wav

Пиковый уровень 99.8 %
Скорость извлечения 3.2 X
Качество диапазона 100.0 %
CRC теста BE061E78
CRC копии BE061E78
Копирование... OK

Ошибок не произошло


AccurateRip: сводка

Трек 1 отсутствует в базе данных
Трек 2 отсутствует в базе данных
Трек 3 отсутствует в базе данных
Трек 4 отсутствует в базе данных
Трек 5 отсутствует в базе данных
Трек 6 отсутствует в базе данных
Трек 7 отсутствует в базе данных
Трек 8 отсутствует в базе данных
Трек 9 отсутствует в базе данных
Трек 10 отсутствует в базе данных
Трек 11 отсутствует в базе данных
Трек 12 отсутствует в базе данных
Трек 13 отсутствует в базе данных
Трек 14 отсутствует в базе данных
Трек 15 отсутствует в базе данных
Трек 16 отсутствует в базе данных
Трек 17 отсутствует в базе данных
Трек 18 отсутствует в базе данных

Ни одного трека нет в базе AccurateRip

Конец отчёта

---- CUETools DB Plugin V2.1.4

[CTDB TOCID: PLhZR3ITR_vXCzT3wy6Jw70VNEY-] found
Submit result: PLhZR3ITR_vXCzT3wy6Jw70VNEY- has been confirmed
Track | CTDB Status
1 | (2/2) Accurately ripped
2 | (2/2) Accurately ripped
3 | (2/2) Accurately ripped
4 | (2/2) Accurately ripped
5 | (2/2) Accurately ripped
6 | (2/2) Accurately ripped
7 | (2/2) Accurately ripped
8 | (2/2) Accurately ripped
9 | (2/2) Accurately ripped
10 | (2/2) Accurately ripped
11 | (2/2) Accurately ripped
12 | (2/2) Accurately ripped
13 | (2/2) Accurately ripped
14 | (2/2) Accurately ripped
15 | (2/2) Accurately ripped
16 | (2/2) Accurately ripped
17 | (2/2) Accurately ripped
18 | (2/2) Accurately ripped


==== Контрольная сумма отчёта E63DE9BC30954FAFA6705B0485DABAC12334A0D3ED94B2E393B9E13B1C43FF32 ====
-----------------------

DON'T MODIFY THIS FILE

-----------------------

PERFORMER: auCDtect Task Manager, ver. 1.6.0 RC1 build 1.6.0.1
Copyright (c) 2008-2010 y-soft. All rights reserved


ANALYZER: auCDtect: CD records authenticity detector, version 0.8.2
Copyright (c) 2004 Oleg Berngardt. All rights reserved.
Copyright (c) 2004 Alexander Djourik. All rights reserved.


FILE: Scorpions - Return To Forever [Jpn RCA,SevenOne MUSIC,Sony SICP 30719].flac
Size: 533345836 Hash: F916CE71D207E247C6CDD1EB73F776A0 Accuracy: -m0
Conclusion: CDDA 100%
Signature: 9CCAC857209ECEA23181A0CA2CE92B3408F7AA90
foobar2000 1.3.8 / Dynamic Range Meter 1.1.1
log date: 2015-04-11 22:46:37

--------------------------------------------------------------------------------
Analyzed: Scorpions / Return To Forever [Jpn RCA/SevenOne MUSIC/Sony SICP 30719]
--------------------------------------------------------------------------------

DR Peak RMS Duration Track
--------------------------------------------------------------------------------
DR6 -0.01 dB -7.39 dB 3:47 01-Going Out With A Bang
DR5 -0.22 dB -7.74 dB 3:54 02-We Built This House
DR6 -0.01 dB -7.10 dB 3:21 03-Rock My Car
DR7 -0.37 dB -10.08 dB 5:06 04-House Of Cards
DR7 -0.01 dB -8.19 dB 2:58 05-All For One
DR7 -0.01 dB -7.60 dB 3:55 06-Rock 'N' Roll Band
DR6 -0.01 dB -7.71 dB 3:33 07-Catch Your Luck And Play
DR7 -0.01 dB -9.12 dB 4:04 08-Rollin' Home
DR6 -0.01 dB -7.14 dB 4:07 09-Hard Rockin' The Place
DR7 -0.01 dB -8.40 dB 4:28 10-Eye Of The Storm
DR7 -0.01 dB -7.76 dB 3:41 11-The Scratch
DR6 -0.01 dB -9.49 dB 4:52 12-Gypsy Life
DR7 -0.01 dB -8.79 dB 3:52 13-The World We Used To Know
DR6 -0.01 dB -7.51 dB 3:42 14-Dancing With The Moonlight
DR7 -0.01 dB -8.37 dB 4:28 15-When The Truth Is A Lie
DR8 -0.21 dB -10.36 dB 2:34 16-Who We Are
DR7 -0.03 dB -7.74 dB 4:23 17-One And One Is Three
DR6 -0.11 dB -7.62 dB 4:22 18-Crazy Ride
--------------------------------------------------------------------------------

Number of tracks: 18
Official DR value: DR7

Samplerate: 44100 Hz
Channels: 2
Bits per sample: 16
Bitrate: 1000 kbps
Codec: FLAC
================================================================================
01. Scorpions - Going Out With A Bang [3:47]
02. Scorpions - We Built This House [3:54]
03. Scorpions - Rock My Car [3:21]
04. Scorpions - House Of Cards [5:06]
05. Scorpions - All For One [2:58]
06. Scorpions - Rock 'N' Roll Band [3:55]
07. Scorpions - Catch Your Luck And Play [3:33]
08. Scorpions - Rollin' Home [4:04]
09. Scorpions - Hard Rockin' The Place [4:07]
10. Scorpions - Eye Of The Storm [4:28]
11. Scorpions - The Scratch [3:41]
12. Scorpions - Gypsy Life [4:52]
-=Bonus Tracks=-
13. Scorpions - The World We Used To Know [3:52]
14. Scorpions - Dancing With The Moonlight [3:42]
15. Scorpions - When The Truth Is A Lie [4:28]
16. Scorpions - Who We Are [2:34]
-=Bonus Tracks For Japan=-
17. Scorpions - One And One Is Three [4:23]
18. Scorpions - Crazy Ride [4:22]
--------------------------
Total time: [1:11:05]

Notes:
=====================
Licensed From – RCA
Licensed From – SevenOne Music
Phonographic Copyright (p) – Sony Music Entertainment Germany GmbH
Copyright (c) – Sony Music Entertainment Germany GmbH
Manufactured By – Sony Music Labels Inc.

℗ & © 2015 Sony Music Entertainment Germany GmbH.
Scorpions - Dancing With The Moonlight


Для просмотра скрытого содержимого необходимо Войти или Зарегистрироваться.​
 
Последнее редактирование модератором:

Similar Threads

Ответы
7
Просмотры
537
Ответы
5
Просмотры
1K
Ответы
8
Просмотры
1K
Ответы
21
Просмотры
2K
Сверху