sergych

Ёшкин кот
VIP
Сообщения
2,236
Реакции
8,407





Ше́рил Сью́зэнн Кро́у (англ. Sheryl Suzanne Crow; 11 февраля 1962, Кеннетт, Миссури) — американская исполнительница, гитаристка, бас-гитаристка и автор песен, девятикратная обладательница премии Грэмми. Есть исполнители, которые ждут признания годами, чтобы получить заветную премию. А есть счастливчики, которые могут похвастаться не одной, а даже несколькими премиями. Такая знаменитая певица, как Sheryl Crow, целых девять раз получала премию «Грэмми». Шерил не только талантливая певица, она автор песен, гитаристка и бас-гитаристка. До 24 лет она не могла найти признания в родном Сент-Луисе, играя в небольших группах и обучая музыке детей младших классов в школе. Переехав в Лос-Анджелес, она успешно прошла прослушивание и стала бэк-вокалисткой в группе Майкла Джексона. По окончанию турне «Bad» в 1989 году Шерил вернулась к своей сольной карьере и сочинению собственных песен. В 1993 году выходит в свет первый сольный альбом «Tuesday Night Music Club». С тех пор были выпущены десять альбомов, последний из которых, «100 Miles From Memphis», вышел в 2010 году. Ее композиции не только занимали первые места в чартах и позволяли ей получить огромную популярность. Шерил написала саундтреки к таким фильмам, как «Завтра не умрет никогда», «Планета Ка-Пэкс», «Тачки» и др. Личная жизнь певицы не очень складывалась, в связи с чем она усыновила двух мальчиков. В 2011 году она победила рак молочной железы, а сейчас, к сожалению, ведет борьбу с раком мозга.Шерил Кроу дважды номинировалась на Золотой Глобус в категории «лучшая песня к фильму». В качестве бэк-вокалистки работала с Майклом Джексоном, Джорджем Харрисоном, Эриком Клэптоном, Бобом Диланом и многими другими известными музыкантами.
 
Последнее редактирование модератором:

sergych

Ёшкин кот
VIP
Сообщения
2,236
Реакции
8,407
2010 - 100 Miles From Memphis


Исполнитель/Artist: Sheryl Crow
Альбом/Album: 100 Miles From Memphis
Год/Year: 2010
Жанр/Genre: Soul, soul rock
Страна/Country: Russia
Рекорд-лейбл/Record label: A&M Records
Номер в каталоге/Catalogue #: 460502670591
Формат/Format: Free Lossless Audio Codec (*.flac)
Качество/Quality: Lossless
Тип рипа/RIP Type: tracks+.cue
Продолжительность/Length: 00:59:26
Источник/Source: Собственный рип
Размер/Size: 420.6 MB

Сканы в комплекте

01 - Our Love Is Fading
02 - Eye to Eye
03 - Sign Your Name (Maitreya Sananda (Terence Trent D'Arby))
04 - Summer Day
05 - Long Road Home
06 - Say What You Want
07 - Peaceful Feeling
08 - Stop" (Crow)
09 - Sideways" (Clarence Greenwood)
10 - 100 Miles from Memphis
11 - Roses and Moonlight

Bonus track – For Michael With Love
12 - I Want You Back (Berry Gordy, Freddie Perren, Alphonzo Mizell, Deke Richards)


Exact Audio Copy V1.0 beta 3 from 29. August 2011

EAC extraction logfile from 13. February 2013, 16:51

Crow, Sheryl / 100 Miles From Memphis

Used drive : Optiarc DVD RW AD-5170A Adapter: 0 ID: 1

Read mode : Secure
Utilize accurate stream : Yes
Defeat audio cache : Yes
Make use of C2 pointers : Yes

Read offset correction : 48
Overread into Lead-In and Lead-Out : No
Fill up missing offset samples with silence : Yes
Delete leading and trailing silent blocks : No
Null samples used in CRC calculations : Yes
Used interface : Installed external ASPI interface
Gap handling : Appended to previous track

Used output format : User Defined Encoder
Selected bitrate : 896 kBit/s
Quality : High
Add ID3 tag : No
Command line compressor : C:\MMProgram\Exact Audio Copy\FLAC\FLAC.EXE
Additional command line options : -6 -V -T "ARTIST=%artist%" -T "TITLE=%title%" -T "ALBUM=%albumtitle%" -T "DATE=%year%" -T "TRACKNUMBER=%tracknr%" -T "GENRE=%genre%" -T "COMMENT=%comment%" -T "BAND=%albuminterpret%" -T "ALBUMARTIST=%albuminterpret%" -T "COMPOSER=%composer%" %haslyrics%--tag-from-file=LYRICS="%lyricsfile%"%haslyrics% -T "DISCNUMBER=%cdnumber%" -T "TOTALDISCS=%totalcds%" -T "TOTALTRACKS=%numtracks%" %hascover%--picture="%coverfile%"%hascover% %source% -o %dest%


TOC of the extracted CD

Track | Start | Length | Start sector | End sector
---------------------------------------------------------
1 | 0:00.00 | 6:21.12 | 0 | 28586
2 | 6:21.12 | 5:33.23 | 28587 | 53584
3 | 11:54.35 | 5:36.68 | 53585 | 78852
4 | 17:31.28 | 4:29.67 | 78853 | 99094
5 | 22:01.20 | 4:12.69 | 99095 | 118063
6 | 26:14.14 | 4:48.02 | 118064 | 139665
7 | 31:02.16 | 4:01.57 | 139666 | 157797
8 | 35:03.73 | 4:39.00 | 157798 | 178722
9 | 39:42.73 | 5:09.01 | 178723 | 201898
10 | 44:51.74 | 4:59.27 | 201899 | 224350
11 | 49:51.26 | 6:39.25 | 224351 | 254300
12 | 56:30.51 | 3:04.72 | 254301 | 268172


Track 1

Filename D:\mm\Sheryl Crow\2010 - 100 Miles From Memphis\01 - Our Love Is Fading.wav

Pre-gap length 0:00:02.00

Peak level 94.4 %
Extraction speed 1.5 X
Track quality 100.0 %
Test CRC A1290CB0
Copy CRC A1290CB0
Accurately ripped (confidence 45) [805459DB] (AR v2)
Copy OK

Track 2

Filename D:\mm\Sheryl Crow\2010 - 100 Miles From Memphis\02 - Eye To Eye.wav

Peak level 98.1 %
Extraction speed 1.3 X
Track quality 99.9 %
Test CRC AF7CAD83
Copy CRC AF7CAD83
Accurately ripped (confidence 45) [C4BFE6CA] (AR v2)
Copy OK

Track 3

Filename D:\mm\Sheryl Crow\2010 - 100 Miles From Memphis\03 - Sign Your Name.wav

Peak level 97.7 %
Extraction speed 1.5 X
Track quality 100.0 %
Test CRC 2996C73C
Copy CRC 2996C73C
Accurately ripped (confidence 46) [7D7B70D8] (AR v2)
Copy OK

Track 4

Filename D:\mm\Sheryl Crow\2010 - 100 Miles From Memphis\04 - Summer Day.wav

Peak level 96.6 %
Extraction speed 1.2 X
Track quality 99.9 %
Test CRC C5B9B862
Copy CRC C5B9B862
Accurately ripped (confidence 45) [76E3BF19] (AR v2)
Copy OK

Track 5

Filename D:\mm\Sheryl Crow\2010 - 100 Miles From Memphis\05 - Long Road Home.wav

Peak level 97.7 %
Extraction speed 1.4 X
Track quality 100.0 %
Test CRC C090B9DD
Copy CRC C090B9DD
Accurately ripped (confidence 45) [C645EC15] (AR v2)
Copy OK

Track 6

Filename D:\mm\Sheryl Crow\2010 - 100 Miles From Memphis\06 - Say What You Want.wav

Peak level 97.7 %
Extraction speed 1.5 X
Track quality 100.0 %
Test CRC D4ED9558
Copy CRC D4ED9558
Accurately ripped (confidence 45) [32B470E9] (AR v2)
Copy OK

Track 7

Filename D:\mm\Sheryl Crow\2010 - 100 Miles From Memphis\07 - Peaceful Feeling.wav

Peak level 94.4 %
Extraction speed 1.4 X
Track quality 100.0 %
Test CRC 863BC8D2
Copy CRC 863BC8D2
Accurately ripped (confidence 45) [1FDBFE0B] (AR v2)
Copy OK

Track 8

Filename D:\mm\Sheryl Crow\2010 - 100 Miles From Memphis\08 - Stop.wav

Peak level 97.6 %
Extraction speed 0.2 X
Track quality 100.0 %
Test CRC A5F50BF6
Copy CRC A5F50BF6
Accurately ripped (confidence 44) [B6D70085] (AR v2)
Copy OK

Track 9

Filename D:\mm\Sheryl Crow\2010 - 100 Miles From Memphis\09 - Sideways.wav

Peak level 97.7 %
Extraction speed 1.5 X
Track quality 100.0 %
Test CRC DE3EE445
Copy CRC DE3EE445
Accurately ripped (confidence 46) [30D723A5] (AR v2)
Copy OK

Track 10

Filename D:\mm\Sheryl Crow\2010 - 100 Miles From Memphis\10 - 100 Miles From Memphis.wav

Peak level 97.7 %
Extraction speed 1.5 X
Track quality 100.0 %
Test CRC 8FB38B15
Copy CRC 8FB38B15
Accurately ripped (confidence 45) [482C7347] (AR v2)
Copy OK

Track 11

Filename D:\mm\Sheryl Crow\2010 - 100 Miles From Memphis\11 - Roses And Moonlight.wav

Peak level 94.4 %
Extraction speed 1.5 X
Track quality 100.0 %
Test CRC C80B8C29
Copy CRC C80B8C29
Accurately ripped (confidence 44) [FF6FEC16] (AR v2)
Copy OK

Track 12

Filename D:\mm\Sheryl Crow\2010 - 100 Miles From Memphis\12 - I Want You Back.wav

Pre-gap length 0:00:09.32

Peak level 96.6 %
Extraction speed 1.4 X
Track quality 100.0 %
Test CRC 1F756F95
Copy CRC 1F756F95
Accurately ripped (confidence 45) [79592116] (AR v2)
Copy OK


All tracks accurately ripped

No errors occurred

End of status report
AUDIOCHECKER v2.0 beta (build 457) - by Dester - [email protected]
~~~~~~~~~~~~~~~~~~~~~~~~~~~~~~~~~~
-=== НЕ РЕДАКТИРУЙТЕ ЭТОТ ФАЙЛ! ===-

Путь: ...\2010 - 100 Miles From Memphis

01 -=- 01 - Our Love Is Fading.flac -=- CDDA (100%)
02 -=- 02 - Eye To Eye.flac -=- CDDA (100%)
03 -=- 03 - Sign Your Name.flac -=- CDDA (100%)
04 -=- 04 - Summer Day.flac -=- CDDA (100%)
05 -=- 05 - Long Road Home.flac -=- CDDA (100%)
06 -=- 06 - Say What You Want.flac -=- CDDA (100%)
07 -=- 07 - Peaceful Feeling.flac -=- CDDA (100%)
08 -=- 08 - Stop.flac -=- CDDA (100%)
09 -=- 09 - Sideways.flac -=- CDDA (100%)
10 -=- 10 - 100 Miles From Memphis.flac -=- CDDA (100%)
11 -=- 11 - Roses And Moonlight.flac -=- CDDA (100%)
12 -=- 12 - I Want You Back.flac -=- CDDA (100%)

Сводка 100,00% CDDA

224801476

 
Последнее редактирование:

sergych

Ёшкин кот
VIP
Сообщения
2,236
Реакции
8,407
1994 - All I Wanna Do {Single}


1994 - All I Wanna Do {Single}




Исполнитель/Artist: Sheryl Crow
Альбом/Album: All I Wanna Do {Single}
Год/Year: 1994
Жанр/Genre: Pop, adult contemporary, Alternative
Страна/Country: Германия
Рекорд-лейбл/Record label: A&M Records
Номер в каталоге/Catalogue #: 580 655-2
Формат/Format: Free Lossless Audio Codec (*.flac)
Качество/Quality: Lossless
Тип рипа/RIP Type: image+.cue
Продолжительность/Length: 00:17:24
Источник/Source: Собственный рип
Размер/Size: 128 MB

Сканы в комплекте

01. All I Wanna Do [0:04:34.03]
02. I Shall Believe (live, The 328 Club in Nashville, 1994-04-15) [0:05:53.12]
03. What I Can Do for You (live, The Borderline, London, 1994-02-09) [0:06:57.00]


Exact Audio Copy V1.0 beta 3 from 29. August 2011

EAC extraction logfile from 11. January 2014, 13:26

Sheryl Crow / All I Wanna Do

Used drive : ATAPI iHAS124 D Adapter: 0 ID: 2

Read mode : Secure
Utilize accurate stream : Yes
Defeat audio cache : Yes
Make use of C2 pointers : Yes

Read offset correction : 6
Overread into Lead-In and Lead-Out : No
Fill up missing offset samples with silence : Yes
Delete leading and trailing silent blocks : No
Null samples used in CRC calculations : Yes
Used interface : Installed external ASPI interface

Used output format : User Defined Encoder
Selected bitrate : 1024 kBit/s
Quality : High
Add ID3 tag : No
Command line compressor : C:\Program Files (x86)\Exact Audio Copy\Flac\flac.exe
Additional command line options : -6 -V -T "ARTIST=%artist%" -T "TITLE=%title%" -T "ALBUM=%albumtitle%" -T "DATE=%year%" -T "TRACKNUMBER=%tracknr%" -T "GENRE=%genre%" -T "COMMENT=%comment%" -T "BAND=%albuminterpret%" -T "COMPOSER=%composer%" %haslyrics%--tag-from-file=LYRICS="%lyricsfile%"%haslyrics% -T "DISCNUMBER=%cdnumber%" -T "TOTALDISCS=%totalcds%" -T "TOTALTRACKS=%numtracks%" %hascover%--picture="%coverfile%"%hascover% %source% -o %dest%


TOC of the extracted CD

Track | Start | Length | Start sector | End sector
---------------------------------------------------------
1 | 0:00.32 | 4:34.03 | 32 | 20584
2 | 4:34.35 | 5:53.12 | 20585 | 47071
3 | 10:27.47 | 6:57.00 | 47072 | 78346


Range status and errors

Selected range

Filename C:\mm\Sheryl Crow\1994 - All I Wanna Do {Single} [580 655-2]\Sheryl Crow - All I Wanna Do.wav

Peak level 100.0 %
Extraction speed 9.4 X
Range quality 99.9 %
Test CRC ED624199
Copy CRC ED624199
Copy OK

No errors occurred


AccurateRip summary

Track 1 accurately ripped (confidence 23) [47F79485] (AR v2)
Track 2 accurately ripped (confidence 22) [CF1B9867] (AR v2)
Track 3 accurately ripped (confidence 22) [F7FDB68E] (AR v2)

All tracks accurately ripped

End of status report
AUDIOCHECKER v2.0 beta (build 457) - by Dester - [email protected]
~~~~~~~~~~~~~~~~~~~~~~~~~~~~~~~~~~
-=== НЕ РЕДАКТИРУЙТЕ ЭТОТ ФАЙЛ! ===-

Путь: ...\1994 - All I Wanna Do {Single} [580 655-2]

1 -=- Sheryl Crow - All I Wanna Do.flac -=- CDDA (100%)

24685172


 
Последнее редактирование:

sergych

Ёшкин кот
VIP
Сообщения
2,236
Реакции
8,407
2008 - Detours

2008 - Detours




Исполнитель/Artist: Sheryl Crow
Альбом/Album: Detours
Год/Year: 2008
Жанр/Genre: Rock, pop rock, folk rock
Страна/Country: Россия
Рекорд-лейбл/Record label: A&M Records / Никитин
Номер в каталоге/Catalogue #: 460502601611
Формат/Format: Free Lossless Audio Codec (*.flac)
Качество/Quality: Lossless
Тип рипа/RIP Type: tracks+.cue
Продолжительность/Length: 00:53:00
Источник/Source: Собственный рип
Размер/Size: 362.3 MB

Сканы в комплекте

01 - God Bless This Mess
02 - Shine Over Babylon
03 - Love Is Free
04 - Peace Be Upon Us
05 - Gasoline
06 - Out Of Our Heads
07 - Detours
08 - Now That You're Gone
09 - Drunk With The Thought Of You
10 - Diamond Ring
11 - Motivation
12 - Make It Go Away (Radiation Song)
13 - Love Is All There Is
14 - Lullaby For Wyatt


Exact Audio Copy V1.0 beta 3 from 29. August 2011

EAC extraction logfile from 3. September 2013, 21:48

Sheryl Crow / Detours

Used drive : ATAPI iHAS124 D Adapter: 0 ID: 2

Read mode : Secure
Utilize accurate stream : Yes
Defeat audio cache : Yes
Make use of C2 pointers : No

Read offset correction : 6
Overread into Lead-In and Lead-Out : No
Fill up missing offset samples with silence : Yes
Delete leading and trailing silent blocks : No
Null samples used in CRC calculations : Yes
Used interface : Installed external ASPI interface
Gap handling : Appended to previous track

Used output format : User Defined Encoder
Selected bitrate : 1024 kBit/s
Quality : High
Add ID3 tag : No
Command line compressor : C:\Program Files (x86)\Exact Audio Copy\FLAC\FLAC.EXE
Additional command line options : -6 -V -T "ARTIST=%artist%" -T "TITLE=%title%" -T "ALBUM=%albumtitle%" -T "DATE=%year%" -T "TRACKNUMBER=%tracknr%" -T "GENRE=%genre%" -T "COMMENT=%comment%" -T "BAND=%albuminterpret%" -T "ALBUMARTIST=%albuminterpret%" -T "COMPOSER=%composer%" %haslyrics%--tag-from-file=LYRICS="%lyricsfile%"%haslyrics% -T "DISCNUMBER=%cdnumber%" -T "TOTALDISCS=%totalcds%" -T "TOTALTRACKS=%numtracks%" %hascover%--picture="%coverfile%"%hascover% %source% -o %dest%


TOC of the extracted CD

Track | Start | Length | Start sector | End sector
---------------------------------------------------------
1 | 0:00.00 | 2:09.18 | 0 | 9692
2 | 2:09.18 | 4:02.41 | 9693 | 27883
3 | 6:11.59 | 3:22.50 | 27884 | 43083
4 | 9:34.34 | 4:22.19 | 43084 | 62752
5 | 13:56.53 | 5:07.17 | 62753 | 85794
6 | 19:03.70 | 4:27.62 | 85795 | 105881
7 | 23:31.57 | 3:28.71 | 105882 | 121552
8 | 27:00.53 | 3:51.16 | 121553 | 138893
9 | 30:51.69 | 2:38.60 | 138894 | 150803
10 | 33:30.54 | 4:10.33 | 150804 | 169586
11 | 37:41.12 | 3:47.23 | 169587 | 186634
12 | 41:28.35 | 3:23.53 | 186635 | 201912
13 | 44:52.13 | 4:01.11 | 201913 | 219998
14 | 48:53.24 | 4:07.59 | 219999 | 238582


Track 1

Filename C:\mm\Sheryl Crow\2008 - Detours\01 - God Bless This Mess.wav

Pre-gap length 0:00:02.00

Peak level 69.6 %
Extraction speed 1.6 X
Track quality 100.0 %
Test CRC C6742C4A
Copy CRC C6742C4A
Accurately ripped (confidence 122) [0BBAACD9] (AR v2)
Copy OK

Track 2

Filename C:\mm\Sheryl Crow\2008 - Detours\02 - Shine Over Babylon.wav

Peak level 100.0 %
Extraction speed 2.0 X
Track quality 100.0 %
Test CRC 49CBA33F
Copy CRC 49CBA33F
Accurately ripped (confidence 121) [03A29A8D] (AR v2)
Copy OK

Track 3

Filename C:\mm\Sheryl Crow\2008 - Detours\03 - Love Is Free.wav

Peak level 99.7 %
Extraction speed 2.1 X
Track quality 100.0 %
Test CRC D7F73037
Copy CRC D7F73037
Accurately ripped (confidence 121) [1D7EC297] (AR v2)
Copy OK

Track 4

Filename C:\mm\Sheryl Crow\2008 - Detours\04 - Peace Be Upon Us.wav

Peak level 99.7 %
Extraction speed 1.8 X
Track quality 99.9 %
Test CRC E2F9C2F5
Copy CRC E2F9C2F5
Accurately ripped (confidence 122) [B077E434] (AR v2)
Copy OK

Track 5

Filename C:\mm\Sheryl Crow\2008 - Detours\05 - Gasoline.wav

Peak level 100.0 %
Extraction speed 2.6 X
Track quality 100.0 %
Test CRC 72848BB8
Copy CRC 72848BB8
Accurately ripped (confidence 122) [44BCD793] (AR v2)
Copy OK

Track 6

Filename C:\mm\Sheryl Crow\2008 - Detours\06 - Out Of Our Heads.wav

Peak level 99.7 %
Extraction speed 2.8 X
Track quality 100.0 %
Test CRC ADA07718
Copy CRC ADA07718
Accurately ripped (confidence 122) [1BF9E8D0] (AR v2)
Copy OK

Track 7

Filename C:\mm\Sheryl Crow\2008 - Detours\07 - Detours.wav

Pre-gap length 0:00:00.71

Peak level 99.7 %
Extraction speed 2.8 X
Track quality 100.0 %
Test CRC 238BEA28
Copy CRC 238BEA28
Accurately ripped (confidence 122) [32E37717] (AR v2)
Copy OK

Track 8

Filename C:\mm\Sheryl Crow\2008 - Detours\08 - Now That You're Gone.wav

Peak level 100.0 %
Extraction speed 3.0 X
Track quality 100.0 %
Test CRC 3FB93AF1
Copy CRC 3FB93AF1
Accurately ripped (confidence 121) [93AED606] (AR v2)
Copy OK

Track 9

Filename C:\mm\Sheryl Crow\2008 - Detours\09 - Drunk With The Thought Of You.wav

Peak level 99.7 %
Extraction speed 2.9 X
Track quality 100.0 %
Test CRC F372B308
Copy CRC F372B308
Accurately ripped (confidence 121) [7E59B0BB] (AR v2)
Copy OK

Track 10

Filename C:\mm\Sheryl Crow\2008 - Detours\10 - Diamond Ring.wav

Peak level 100.0 %
Extraction speed 3.3 X
Track quality 100.0 %
Test CRC 9D803B17
Copy CRC 9D803B17
Accurately ripped (confidence 121) [FA872B48] (AR v2)
Copy OK

Track 11

Filename C:\mm\Sheryl Crow\2008 - Detours\11 - Motivation.wav

Peak level 99.8 %
Extraction speed 3.3 X
Track quality 100.0 %
Test CRC F519ABD5
Copy CRC F519ABD5
Accurately ripped (confidence 121) [E2067BC2] (AR v2)
Copy OK

Track 12

Filename C:\mm\Sheryl Crow\2008 - Detours\12 - Make It Go Away (Radiation Song).wav

Peak level 99.7 %
Extraction speed 3.4 X
Track quality 100.0 %
Test CRC 199D4A0E
Copy CRC 199D4A0E
Accurately ripped (confidence 122) [E1F01487] (AR v2)
Copy OK

Track 13

Filename C:\mm\Sheryl Crow\2008 - Detours\13 - Love Is All There Is.wav

Peak level 99.7 %
Extraction speed 3.6 X
Track quality 100.0 %
Test CRC BDD7C561
Copy CRC BDD7C561
Accurately ripped (confidence 122) [DAA27B3B] (AR v2)
Copy OK

Track 14

Filename C:\mm\Sheryl Crow\2008 - Detours\14 - Lullaby For Wyatt.wav

Peak level 99.7 %
Extraction speed 3.7 X
Track quality 100.0 %
Test CRC 6C2E1331
Copy CRC 6C2E1331
Accurately ripped (confidence 119) [947890DA] (AR v2)
Copy OK


All tracks accurately ripped

No errors occurred

End of status report
AUDIOCHECKER v2.0 beta (build 457) - by Dester - [email protected]
~~~~~~~~~~~~~~~~~~~~~~~~~~~~~~~~~~
-=== НЕ РЕДАКТИРУЙТЕ ЭТОТ ФАЙЛ! ===-

Путь: ...\2008 - Detours

01 -=- 01 - God Bless This Mess.flac -=- MPEG (92%)
02 -=- 02 - Shine Over Babylon.flac -=- CDDA (100%)
03 -=- 03 - Love Is Free.flac -=- CDDA (100%)
04 -=- 04 - Peace Be Upon Us.flac -=- CDDA (100%)
05 -=- 05 - Gasoline.flac -=- CDDA (100%)
06 -=- 06 - Out Of Our Heads.flac -=- CDDA (100%)
07 -=- 07 - Detours.flac -=- CDDA (100%)
08 -=- 08 - Now That You're Gone.flac -=- CDDA (100%)
09 -=- 09 - Drunk With The Thought Of You.flac -=- CDDA (100%)
10 -=- 10 - Diamond Ring.flac -=- CDDA (100%)
11 -=- 11 - Motivation.flac -=- CDDA (100%)
12 -=- 12 - Make It Go Away (Radiation Song).flac -=- CDDA (100%)
13 -=- 13 - Love Is All There Is.flac -=- CDDA (100%)
14 -=- 14 - Lullaby For Wyatt.flac -=- CDDA (100%)

Сводка 93,43% CDDA

87005860

 
Последнее редактирование:

sergych

Ёшкин кот
VIP
Сообщения
2,236
Реакции
8,407
1995 - Can't Cry Anymore {EP}


1995 - Can't Cry Anymore {EP}




Исполнитель/Artist: Sheryl Crow
Альбом/Album: Can't Cry Anymore {EP}
Год/Year: 1995
Жанр/Genre: Rock, pop rock, adult contemporary
Страна/Country: Соединённые Штаты
Рекорд-лейбл/Record label: A&M Records
Номер в каталоге/Catalogue #: 581 081-2
Формат/Format: Free Lossless Audio Codec (*.flac)
Качество/Quality: Lossless
Тип рипа/RIP Type: image+.cue
Продолжительность/Length: 00:25:20
Источник/Source: Собственный рип
Размер/Size: 165.5 MB

Сканы в комплекте

01. Can't Cry Anymore (LP version) [0:03:40.00]
02. No One Said It Would Be Easy (live) [0:06:52.17]
03. What I Can Do for You (live) [0:07:16.70]
04. I Shall Believe (live) [0:07:31.00]


Exact Audio Copy V1.0 beta 3 from 29. August 2011

EAC extraction logfile from 7. May 2014, 14:00

Sheryl Crow / Can't Cry Anymore

Used drive : Optiarc DVD RW AD-5170A Adapter: 0 ID: 0

Read mode : Secure
Utilize accurate stream : Yes
Defeat audio cache : Yes
Make use of C2 pointers : No

Read offset correction : 48
Overread into Lead-In and Lead-Out : No
Fill up missing offset samples with silence : Yes
Delete leading and trailing silent blocks : No
Null samples used in CRC calculations : Yes
Used interface : Installed external ASPI interface

Used output format : User Defined Encoder
Selected bitrate : 1024 kBit/s
Quality : High
Add ID3 tag : No
Command line compressor : C:\MMProgram\Exact Audio Copy\FLAC\FLAC.EXE
Additional command line options : -6 -V -T "ARTIST=%artist%" -T "TITLE=%title%" -T "ALBUM=%albumtitle%" -T "DATE=%year%" -T "TRACKNUMBER=%tracknr%" -T "GENRE=%genre%" -T "COMMENT=%comment%" -T "BAND=%albuminterpret%" -T "ALBUMARTIST=%albuminterpret%" -T "COMPOSER=%composer%" %haslyrics%--tag-from-file=LYRICS="%lyricsfile%"%haslyrics% -T "DISCNUMBER=%cdnumber%" -T "TOTALDISCS=%totalcds%" -T "TOTALTRACKS=%numtracks%" %hascover%--picture="%coverfile%"%hascover% %source% -o %dest%


TOC of the extracted CD

Track | Start | Length | Start sector | End sector
---------------------------------------------------------
1 | 0:00.00 | 3:40.00 | 0 | 16499
2 | 3:40.00 | 6:52.17 | 16500 | 47416
3 | 10:32.17 | 7:16.70 | 47417 | 80186
4 | 17:49.12 | 7:31.00 | 80187 | 114011


Range status and errors

Selected range

Filename D:\mm\Sheryl Crow\1995 - Can't Cry Anymore {EP} [581 081-2]\Sheryl Crow - Can't Cry Anymore.wav

Peak level 95.3 %
Extraction speed 1.7 X
Range quality 100.0 %
Test CRC 9A8C7EFE
Copy CRC 9A8C7EFE
Copy OK

No errors occurred


AccurateRip summary

Track 1 cannot be verified as accurate (confidence 4) [D15AD97C], AccurateRip returned [31DAA1A1] (AR v2)
Track 2 cannot be verified as accurate (confidence 4) [9F6EA476], AccurateRip returned [9DAB5BB0] (AR v2)
Track 3 cannot be verified as accurate (confidence 4) [436A8A0B], AccurateRip returned [DAFF2410] (AR v2)
Track 4 cannot be verified as accurate (confidence 4) [CD014DEC], AccurateRip returned [DC1293CA] (AR v2)

No tracks could be verified as accurate
You may have a different pressing from the one(s) in the database

End of status report

==== Log checksum C20F382A65A763EB742C1905E97271ED18713653B4F6F57902947E4582C1E4A9 ====
AUDIOCHECKER v2.0 beta (build 457) - by Dester - [email protected]
~~~~~~~~~~~~~~~~~~~~~~~~~~~~~~~~~~
-=== НЕ РЕДАКТИРУЙТЕ ЭТОТ ФАЙЛ! ===-

Путь: ...\1995 - Can't Cry Anymore {EP} [581 081-2]

1 -=- Sheryl Crow - Can't Cry Anymore.flac -=- CDDA (100%)

18595476


 
Последнее редактирование:

sergych

Ёшкин кот
VIP
Сообщения
2,236
Реакции
8,407
1993 - Tuesday Night Music Club


1993 - Tuesday Night Music Club




Исполнитель/Artist: Sheryl Crow
Альбом/Album: Tuesday Night Music Club
Год/Year: 1993
Жанр/Genre: Pop, rock, country, country pop, country rock, pop rock, adult contemporary
Страна/Country: Соединённые Штаты
Рекорд-лейбл/Record label: A&M Records
Номер в каталоге/Catalogue #: 540 126-2--18
Формат/Format: Free Lossless Audio Codec (*.flac)
Качество/Quality: Lossless
Тип рипа/RIP Type: image+.cue
Продолжительность/Length: 00:49:46
Источник/Source: Собственный рип
Размер/Size: 326.2 MB

Сканы в комплекте

01. Run, Baby, Run [0:04:53.15]
02. Leaving Las Vegas [0:05:09.73]
03. Strong Enough [0:03:10.02]
04. Can't Cry Anymore [0:03:42.05]
05. Solidify [0:04:07.68]
06. The Na-Na Song [0:03:12.20]
07. No One Said It Would Be Easy [0:05:28.62]
08. What I Can Do For You [0:04:15.10]
09. All I Wanna Do [0:04:33.58]
10. We Do What We Can [0:05:39.30]
11. I Shall Believe [0:05:34.25]


Sheryl Crow – guitar, piano, vocals
David Baerwald – guitar
Bill Bottrell – guitar, pedal steel
Kevin Gilbert – keys, guitar, drums ("Run Baby Run", "All By Myself"), bass ("All I Want To Do")
David Ricketts – bass ("Leaving Las Vegas")
Dan Schwartz – bass, guitar
Brian MacLeod – drums
Exact Audio Copy V1.0 beta 3 from 29. August 2011

EAC extraction logfile from 18. May 2014, 11:22

Sheryl Crow / Tuesday Night Music Club

Used drive : ATAPI iHAS124 D Adapter: 0 ID: 2

Read mode : Secure
Utilize accurate stream : Yes
Defeat audio cache : Yes
Make use of C2 pointers : No

Read offset correction : 6
Overread into Lead-In and Lead-Out : No
Fill up missing offset samples with silence : Yes
Delete leading and trailing silent blocks : No
Null samples used in CRC calculations : Yes
Used interface : Installed external ASPI interface

Used output format : User Defined Encoder
Selected bitrate : 1024 kBit/s
Quality : High
Add ID3 tag : No
Command line compressor : C:\Program Files (x86)\Exact Audio Copy\Flac\flac.exe
Additional command line options : -6 -V -T "ARTIST=%artist%" -T "TITLE=%title%" -T "ALBUM=%albumtitle%" -T "DATE=%year%" -T "TRACKNUMBER=%tracknr%" -T "GENRE=%genre%" -T "COMMENT=%comment%" -T "BAND=%albuminterpret%" -T "COMPOSER=%composer%" %haslyrics%--tag-from-file=LYRICS="%lyricsfile%"%haslyrics% -T "DISCNUMBER=%cdnumber%" -T "TOTALDISCS=%totalcds%" -T "TOTALTRACKS=%numtracks%" %hascover%--picture="%coverfile%"%hascover% %source% -o %dest%


TOC of the extracted CD

Track | Start | Length | Start sector | End sector
---------------------------------------------------------
1 | 0:00.32 | 4:53.15 | 32 | 22021
2 | 4:53.47 | 5:09.73 | 22022 | 45269
3 | 10:03.45 | 3:10.02 | 45270 | 59521
4 | 13:13.47 | 3:42.05 | 59522 | 76176
5 | 16:55.52 | 4:07.68 | 76177 | 94769
6 | 21:03.45 | 3:12.20 | 94770 | 109189
7 | 24:15.65 | 5:28.62 | 109190 | 133851
8 | 29:44.52 | 4:15.10 | 133852 | 152986
9 | 33:59.62 | 4:33.58 | 152987 | 173519
10 | 38:33.45 | 5:39.30 | 173520 | 198974
11 | 44:13.00 | 5:34.25 | 198975 | 224049


Range status and errors

Selected range

Filename C:\mm\Sheryl Crow\1993 - Tuesday Night Music Club [540 126-2--18]\Sheryl Crow - Tuesday Night Music Club.wav

Peak level 100.0 %
Extraction speed 3.0 X
Range quality 99.9 %
Test CRC 93696AEB
Copy CRC 93696AEB
Copy OK

No errors occurred


AccurateRip summary

Track 1 accurately ripped (confidence 200) [9382D314] (AR v2)
Track 2 accurately ripped (confidence 200) [2AF34E4F] (AR v2)
Track 3 accurately ripped (confidence 200) [81EBCEFA] (AR v2)
Track 4 accurately ripped (confidence 200) [5EC7F45E] (AR v2)
Track 5 accurately ripped (confidence 200) [E189CF64] (AR v2)
Track 6 accurately ripped (confidence 200) [6DE490BF] (AR v2)
Track 7 accurately ripped (confidence 200) [6FFDC4F1] (AR v2)
Track 8 accurately ripped (confidence 200) [88455624] (AR v2)
Track 9 accurately ripped (confidence 200) [096BAD96] (AR v2)
Track 10 accurately ripped (confidence 200) [593D7323] (AR v2)
Track 11 accurately ripped (confidence 200) [8BFA8495] (AR v2)

All tracks accurately ripped

End of status report
AUDIOCHECKER v2.0 beta (build 457) - by Dester - [email protected]
~~~~~~~~~~~~~~~~~~~~~~~~~~~~~~~~~~
-=== НЕ РЕДАКТИРУЙТЕ ЭТОТ ФАЙЛ! ===-

Путь: ...\1993 - Tuesday Night Music Club [540 126-2--18]

1 -=- Sheryl Crow - Tuesday Night Music Club.flac -=- CDDA (99%)

229988532


 
Последнее редактирование:

sergych

Ёшкин кот
VIP
Сообщения
2,236
Реакции
8,407
1996 - If It Makes You Happy {Maxi-single}


1996 - If It Makes You Happy {Maxi-single}




Исполнитель/Artist: Sheryl Crow
Альбом/Album: If It Makes You Happy {Maxi-single}
Год/Year: 1996
Жанр/Genre: Rock, country rock
Страна/Country: Великобритания
Рекорд-лейбл/Record label: A&M Records
Номер в каталоге/Catalogue #: 581 903-2
Формат/Format: Free Lossless Audio Codec (*.flac)
Качество/Quality: Lossless
Тип рипа/RIP Type: image+.cue
Продолжительность/Length: 00:19:12
Источник/Source: Собственный рип
Размер/Size: 126.6 MB

Сканы в комплекте

01. If It Makes You Happy [Edit] [0:04:34.28]
02. All I Wanna Do [0:04:34.07]
03. Run Baby Run [0:04:53.13]
04. Leaving Las Vegas [0:05:10.30]


Exact Audio Copy V1.0 beta 3 from 29. August 2011

EAC extraction logfile from 17. July 2014, 19:59

Sheryl Crow / If It Makes You Happy

Used drive : ATAPI iHAS124 D Adapter: 0 ID: 2

Read mode : Secure
Utilize accurate stream : Yes
Defeat audio cache : Yes
Make use of C2 pointers : No

Read offset correction : 6
Overread into Lead-In and Lead-Out : No
Fill up missing offset samples with silence : Yes
Delete leading and trailing silent blocks : No
Null samples used in CRC calculations : Yes
Used interface : Installed external ASPI interface

Used output format : User Defined Encoder
Selected bitrate : 1024 kBit/s
Quality : High
Add ID3 tag : No
Command line compressor : C:\Program Files (x86)\Exact Audio Copy\Flac\flac.exe
Additional command line options : -6 -V -T "ARTIST=%artist%" -T "TITLE=%title%" -T "ALBUM=%albumtitle%" -T "DATE=%year%" -T "TRACKNUMBER=%tracknr%" -T "GENRE=%genre%" -T "COMMENT=%comment%" -T "BAND=%albuminterpret%" -T "COMPOSER=%composer%" %haslyrics%--tag-from-file=LYRICS="%lyricsfile%"%haslyrics% -T "DISCNUMBER=%cdnumber%" -T "TOTALDISCS=%totalcds%" -T "TOTALTRACKS=%numtracks%" %hascover%--picture="%coverfile%"%hascover% %source% -o %dest%


TOC of the extracted CD

Track | Start | Length | Start sector | End sector
---------------------------------------------------------
1 | 0:00.32 | 4:34.28 | 32 | 20609
2 | 4:34.60 | 4:34.07 | 20610 | 41166
3 | 9:08.67 | 4:53.13 | 41167 | 63154
4 | 14:02.05 | 5:10.30 | 63155 | 86434


Range status and errors

Selected range

Filename C:\mm\Sheryl Crow\1996 - If It Makes You Happy [581 903-2]\Sheryl Crow - If It Makes You Happy.wav

Peak level 100.0 %
Extraction speed 6.9 X
Range quality 100.0 %
Test CRC 4AF3BC4D
Copy CRC 4AF3BC4D
Copy OK

No errors occurred


AccurateRip summary

Track 1 accurately ripped (confidence 3) [CD791F04] (AR v2)
Track 2 accurately ripped (confidence 3) [9FB9FBE2] (AR v2)
Track 3 accurately ripped (confidence 3) [3EEE6705] (AR v2)
Track 4 accurately ripped (confidence 3) [AE1D0982] (AR v2)

All tracks accurately ripped

End of status report
AUDIOCHECKER v2.0 beta (build 457) - by Dester - [email protected]
~~~~~~~~~~~~~~~~~~~~~~~~~~~~~~~~~~
-=== НЕ РЕДАКТИРУЙТЕ ЭТОТ ФАЙЛ! ===-

Путь: ...\1996 - If It Makes You Happy [581 903-2]

1 -=- Sheryl Crow - If It Makes You Happy.flac -=- CDDA (99%)

59144852


 
Последнее редактирование:

aheron

Гуру
VIP
Сообщения
15,712
Реакции
18,823
Sheryl Crow - Sheryl Crow (1996)





Performer: Sheryl Crow
Album: Sheryl Crow
Label: A&M Records. Made in US.
Catalog #: 31454 0587 2 IN02
Style: Alternative Rock, Country Rock, Pop Rock
Year: 1996
Format: FLAC (image + .cue)
Bitrate: lossless
Covers: in archive
Amount of tracks: 13
Size ZIP: ~ 550 mb

Exact Audio Copy V1.0 beta 3 from 29. August 2011

EAC extraction logfile from 11. March 2013, 18:27

Sheryl Crow / Sheryl Crow

Used drive : Optiarc DVD RW AD-5280S Adapter: 0 ID: 2

Read mode : Secure
Utilize accurate stream : Yes
Defeat audio cache : Yes
Make use of C2 pointers : No

Read offset correction : 48
Overread into Lead-In and Lead-Out : No
Fill up missing offset samples with silence : Yes
Delete leading and trailing silent blocks : No
Null samples used in CRC calculations : Yes
Used interface : Installed external ASPI interface

Used output format : Internal WAV Routines
Sample format : 44.100 Hz; 16 Bit; Stereo


TOC of the extracted CD

Track | Start | Length | Start sector | End sector
---------------------------------------------------------
1 | 0:00.00 | 4:54.20 | 0 | 22069
2 | 4:54.20 | 3:49.65 | 22070 | 39309
3 | 8:44.10 | 4:50.55 | 39310 | 61114
4 | 13:34.65 | 3:59.72 | 61115 | 79111
5 | 17:34.62 | 5:23.30 | 79112 | 103366
6 | 22:58.17 | 4:26.33 | 103367 | 123349
7 | 27:24.50 | 3:07.55 | 123350 | 137429
8 | 30:32.30 | 4:17.17 | 137430 | 156721
9 | 34:49.47 | 4:42.55 | 156722 | 177926
10 | 39:32.27 | 3:31.53 | 177927 | 193804
11 | 43:04.05 | 4:57.60 | 193805 | 216139
12 | 48:01.65 | 4:44.37 | 216140 | 237476
13 | 52:46.27 | 3:55.40 | 237477 | 255141


Range status and errors

Selected range

Filename D:\flacmusic.ru rip by ротарь\Sheryl Crow - Sheryl Crow.wav

Peak level 99.4 %
Extraction speed 4.1 X
Range quality 100.0 %
Test CRC 52C3EE2A
Copy CRC 52C3EE2A
Copy OK

No errors occurred


AccurateRip summary

Track 1 accurately ripped (confidence 38) [17992B82] (AR v2)
Track 2 accurately ripped (confidence 38) [3A36F750] (AR v2)
Track 3 accurately ripped (confidence 38) [CBED4950] (AR v2)
Track 4 accurately ripped (confidence 39) [6D08A4FB] (AR v2)
Track 5 accurately ripped (confidence 39) [35C70F9C] (AR v2)
Track 6 accurately ripped (confidence 38) [76BA0DEA] (AR v2)
Track 7 accurately ripped (confidence 40) [BBB4FEE4] (AR v2)
Track 8 accurately ripped (confidence 38) [737F501B] (AR v2)
Track 9 accurately ripped (confidence 40) [8B58AB86] (AR v2)
Track 10 accurately ripped (confidence 39) [FBA49E83] (AR v2)
Track 11 accurately ripped (confidence 38) [589A4F08] (AR v2)
Track 12 accurately ripped (confidence 35) [79DF5923] (AR v2)
Track 13 accurately ripped (confidence 37) [AD840885] (AR v2)

All tracks accurately ripped

End of status report

==== Log checksum 24958AB75D9434A3153967961349F2A0FEB1379D5F6EBADCE92AF64A59598700 ====
-----------------------

DON'T MODIFY THIS FILE

-----------------------

PERFORMER: auCDtect Task Manager, ver. 1.6.0 RC1 build 1.6.0.1
Copyright (c) 2008-2010 y-soft. All rights reserved


ANALYZER: auCDtect: CD records authenticity detector, version 0.8.2
Copyright (c) 2004 Oleg Berngardt. All rights reserved.
Copyright (c) 2004 Alexander Djourik. All rights reserved.


FILE: Sheryl Crow - Sheryl Crow.flac
Size: 362366003 Hash: 06A744377A87D782C803269269550EA6 Accuracy: -m0
Conclusion: CDDA 99%
Signature: 8DA54DC07970973E5A1304B4B93DCCA322AF4F09
foobar2000 1.3.2 / Dynamic Range Meter 1.1.1
log date: 2014-07-22 00:54:58

--------------------------------------------------------------------------------
Analyzed: Sheryl Crow / Sheryl Crow
--------------------------------------------------------------------------------

DR Peak RMS Duration Track
--------------------------------------------------------------------------------
DR8 -0.05 dB -9.89 dB 4:54 01-Maybe Angels
DR8 -0.05 dB -9.30 dB 3:50 02-A Change Would Do You Good
DR8 -0.18 dB -10.16 dB 4:51 03-Home
DR9 -0.05 dB -10.03 dB 4:00 04-Sweet Rosalyn
DR8 -0.05 dB -9.53 dB 5:23 05-If It Makes You Happy
DR9 -0.18 dB -12.03 dB 4:26 06-Redemption Day
DR8 -0.18 dB -9.65 dB 3:08 07-Hard To Make A Stand
DR8 -0.52 dB -9.68 dB 4:17 08-Every Day Is A Winding Road
DR9 -0.05 dB -10.54 dB 4:43 09-Love Is A Good Thing
DR9 -0.05 dB -10.06 dB 3:32 10-Oh Marie
DR8 -0.18 dB -9.16 dB 4:58 11-Superstar
DR9 -0.05 dB -11.00 dB 4:44 12-The Book
DR8 -0.05 dB -10.51 dB 3:56 13-Ordinary Morning
--------------------------------------------------------------------------------

Number of tracks: 13
Official DR value: DR8

Samplerate: 44100 Hz
Channels: 2
Bits per sample: 16
Bitrate: 852 kbps
Codec: FLAC
================================================================================
Альбом "Sheryl Crow" вышел в 1996 году, легко поднявшись в Тор 10 США (6 строка в чарте Billboard 200) и заняв 12 место в канадском рейтинге альбомов. В полном согласии с названием, диск включал гораздо более интимные, исповедальные песни. Международная армия поклонников классического рока отнеслась к этой работе с большим вниманием. Только в Америке релиз разошелся почти трехмиллионным тиражом.
01. Sheryl Crow - Maybe Angels [4:54]
02. Sheryl Crow - A Change Would Do You Good [3:50]
03. Sheryl Crow - Home [4:51]
04. Sheryl Crow - Sweet Rosalyn [4:00]
05. Sheryl Crow - If It Makes You Happy [5:23]
06. Sheryl Crow - Redemption Day [4:26]
07. Sheryl Crow - Hard To Make A Stand [3:08]
08. Sheryl Crow - Every Day Is A Winding Road [4:17]
09. Sheryl Crow - Love Is A Good Thing [4:43]
10. Sheryl Crow - Oh Marie [3:32]
11. Sheryl Crow - Superstar [4:58]
12. Sheryl Crow - The Book [4:44]
13. Sheryl Crow - Ordinary Morning [3:56]
--------------------------
Total time: [56:41]


Notes:
==========
Made in the U.S.A.
Printed in the U.S.A.
℗ & © 1996 A&M Records, Inc.
Mastered at Gateway Mastering Studios, Portland, Maine.
Sheryl Crow - Home


 
Последнее редактирование модератором:

sergych

Ёшкин кот
VIP
Сообщения
2,236
Реакции
8,407
2008 - Home For Christmas


2008 - Home For Christmas




Исполнитель/Artist: Sheryl Crow
Альбом/Album: Home For Christmas
Год/Year: 2008
Жанр/Genre: Christmas, country, jazz
Страна/Country: Япония
Рекорд-лейбл/Record label: A&M Records
Номер в каталоге/Catalogue #: UICA-1049
Формат/Format: Free Lossless Audio Codec (*.flac)
Качество/Quality: Lossless
Тип рипа/RIP Type: image+.cue
Продолжительность/Length: 00:41:33
Источник/Source: Собственный рип
Размер/Size: 284.1 MB

Сканы в комплекте

01. Go Tell It On The Mountain [0:03:08.25]
02. The Christmas Song [0:03:23.32]
03. White Christmas [0:03:31.53]
04. I'll Be Home For Christmas [0:03:42.09]
05. Merry Christmas, Baby [0:03:15.56]
06. The Bells Of St. Mary's [0:04:33.13]
07. Blue Christmas [0:03:24.71]
08. O Holy Night [0:03:40.23]
09. There Is A Star That Shines Tonight [0:03:59.42]
10. Hello My Friend, Hello [0:03:41.22]
11. All Through The Night [0:05:13.26]


Exact Audio Copy V1.0 beta 3 from 29. August 2011

EAC extraction logfile from 26. December 2014, 21:17

Sheryl Crow / Home For Christmas

Used drive : ATAPI iHAS124 D Adapter: 0 ID: 2

Read mode : Secure
Utilize accurate stream : Yes
Defeat audio cache : Yes
Make use of C2 pointers : No

Read offset correction : 6
Overread into Lead-In and Lead-Out : No
Fill up missing offset samples with silence : Yes
Delete leading and trailing silent blocks : No
Null samples used in CRC calculations : Yes
Used interface : Installed external ASPI interface

Used output format : User Defined Encoder
Selected bitrate : 1024 kBit/s
Quality : High
Add ID3 tag : No
Command line compressor : C:\Program Files (x86)\Exact Audio Copy\Flac\flac.exe
Additional command line options : -6 -V -T "ARTIST=%artist%" -T "TITLE=%title%" -T "ALBUM=%albumtitle%" -T "DATE=%year%" -T "TRACKNUMBER=%tracknr%" -T "GENRE=%genre%" -T "COMMENT=%comment%" -T "BAND=%albuminterpret%" -T "COMPOSER=%composer%" %haslyrics%--tag-from-file=LYRICS="%lyricsfile%"%haslyrics% -T "DISCNUMBER=%cdnumber%" -T "TOTALDISCS=%totalcds%" -T "TOTALTRACKS=%numtracks%" %hascover%--picture="%coverfile%"%hascover% %source% -o %dest%


TOC of the extracted CD

Track | Start | Length | Start sector | End sector
---------------------------------------------------------
1 | 0:00.00 | 3:08.25 | 0 | 14124
2 | 3:08.25 | 3:23.32 | 14125 | 29381
3 | 6:31.57 | 3:31.53 | 29382 | 45259
4 | 10:03.35 | 3:42.09 | 45260 | 61918
5 | 13:45.44 | 3:15.56 | 61919 | 76599
6 | 17:01.25 | 4:33.13 | 76600 | 97087
7 | 21:34.38 | 3:24.71 | 97088 | 112458
8 | 24:59.34 | 3:40.23 | 112459 | 128981
9 | 28:39.57 | 3:59.42 | 128982 | 146948
10 | 32:39.24 | 3:41.22 | 146949 | 163545
11 | 36:20.46 | 5:13.26 | 163546 | 187046


Range status and errors

Selected range

Filename C:\mm\Sheryl Crow\2008 - Home For Christmas [UICA-1049]\Sheryl Crow - Home For Christmas.wav

Peak level 99.7 %
Extraction speed 2.9 X
Range quality 99.9 %
Test CRC 27CD3A94
Copy CRC 27CD3A94
Copy OK

No errors occurred


AccurateRip summary

Track 1 accurately ripped (confidence 11) [1BC10979] (AR v2)
Track 2 accurately ripped (confidence 11) [74457D77] (AR v2)
Track 3 accurately ripped (confidence 11) [A33C5547] (AR v2)
Track 4 accurately ripped (confidence 11) [D0A8B222] (AR v2)
Track 5 accurately ripped (confidence 11) [B1C672E9] (AR v2)
Track 6 accurately ripped (confidence 11) [10584E8A] (AR v2)
Track 7 accurately ripped (confidence 11) [A114B989] (AR v2)
Track 8 accurately ripped (confidence 11) [2777EF70] (AR v2)
Track 9 accurately ripped (confidence 11) [45274F44] (AR v2)
Track 10 accurately ripped (confidence 11) [72C9154C] (AR v2)
Track 11 accurately ripped (confidence 11) [1B8CBD7E] (AR v2)

All tracks accurately ripped

End of status report
AUDIOCHECKER v2.0 beta (build 457) - by Dester - [email protected]
~~~~~~~~~~~~~~~~~~~~~~~~~~~~~~~~~~
-=== НЕ РЕДАКТИРУЙТЕ ЭТОТ ФАЙЛ! ===-

Путь: ...\2008 - Home For Christmas [UICA-1049]

1 -=- Sheryl Crow - Home For Christmas.flac -=- CDDA (100%)

199646708


 
Последнее редактирование:

sergych

Ёшкин кот
VIP
Сообщения
2,236
Реакции
8,407
1998 - The Globe Sessions


1998 - The Globe Sessions




Исполнитель/Artist: Sheryl Crow
Альбом/Album: The Globe Sessions
Год/Year: 1998
Жанр/Genre: Rock, blues rock, country rock
Страна/Country: Япония
Рекорд-лейбл/Record label: A&M Records / Polydor
Номер в каталоге/Catalogue #: POCM-1253
Формат/Format: Free Lossless Audio Codec (*.flac)
Качество/Quality: Lossless
Тип рипа/RIP Type: image+.cue
Продолжительность/Length: 01:07:36
Источник/Source: Собственный рип
Размер/Size: 511.5 MB

Сканы в комплекте

01. My Favorite Mistake [0:04:07.70]
02. There Goes The Neighborhood [0:05:01.67]
03. Riverwide [0:04:07.60]
04. It Don't Hunt [0:04:49.50]
05. Maybe That's Something [0:04:18.10]
06. Am I Getting Through (Part I & II) [0:05:31.05]
07. Anything But Down [0:04:18.03]
08. The Difficult Kind [0:06:19.20]
09. Mississippi [0:04:41.50]
10. Members Only [0:04:57.45]
11. Crash And Burn / Subway Ride [0:11:26.42]
12. Carolina [Bonus Track] [0:03:56.58]
13. Resuscitation [Bonus Track] [0:03:59.00]


Sheryl Crow - organ, acoustic guitar, bass, guitar, harmonica, percussion, electric guitar, keyboards, Hammond organ, tambourine, vocals, clavinet, 12 string guitar, National steel guitar, Wurlitzer, electric 12 string guitar, acoustic 12 string guitar
Dan McCarroll, Jim Bogios - drums
Avril Brown, Lorenza Ponce, Laura Seaton, Mary Rowell, Matthew Pierce, Maura Giannini, Mark Feldman - violin
Kathy Crow - vocals
Michael Davis - trombone
Mitchell Froom - clavinet
Lisa Germano - violin, autoharp
Jimmie Haskell - conductor
Bobby Keys - alto saxophone, baritone saxophone, tenor saxophone
Greg Leisz - pedal steel, banjo
Val McCallum - guitar, electric guitar
Wendy Melvoin - bass, guitar
Dan Rothchild - bass, double bass
Jane Scarpantoni, Garo Yellin, Mary Wooten, Michelle Kinney - cello
Kent Smith - trumpet
Tim Smith - acoustic guitar, bass, electric guitar
Benmont Tench - organ, piano, Hammond organ, chamberlin
Jeff Trott - acoustic guitar, bass, guitar, electric guitar, 12 string guitar, Moog synthesizer, slide guitar, tremolo guitar, acoustic 12 string guitar
Gregg Williams - percussion, drums, tambourine
Todd Wolfe - electric guitar
Exact Audio Copy V1.0 beta 3 from 29. August 2011

EAC extraction logfile from 17. February 2015, 22:01

Sheryl Crow / The Globe Sessions

Used drive : ATAPI iHAS124 D Adapter: 0 ID: 2

Read mode : Secure
Utilize accurate stream : Yes
Defeat audio cache : Yes
Make use of C2 pointers : No

Read offset correction : 6
Overread into Lead-In and Lead-Out : No
Fill up missing offset samples with silence : Yes
Delete leading and trailing silent blocks : No
Null samples used in CRC calculations : Yes
Used interface : Installed external ASPI interface

Used output format : User Defined Encoder
Selected bitrate : 1024 kBit/s
Quality : High
Add ID3 tag : No
Command line compressor : C:\Program Files (x86)\Exact Audio Copy\Flac\flac.exe
Additional command line options : -6 -V -T "ARTIST=%artist%" -T "TITLE=%title%" -T "ALBUM=%albumtitle%" -T "DATE=%year%" -T "TRACKNUMBER=%tracknr%" -T "GENRE=%genre%" -T "COMMENT=%comment%" -T "BAND=%albuminterpret%" -T "COMPOSER=%composer%" %haslyrics%--tag-from-file=LYRICS="%lyricsfile%"%haslyrics% -T "DISCNUMBER=%cdnumber%" -T "TOTALDISCS=%totalcds%" -T "TOTALTRACKS=%numtracks%" %hascover%--picture="%coverfile%"%hascover% %source% -o %dest%


TOC of the extracted CD

Track | Start | Length | Start sector | End sector
---------------------------------------------------------
1 | 0:00.00 | 4:07.70 | 0 | 18594
2 | 4:07.70 | 5:01.67 | 18595 | 41236
3 | 9:09.62 | 4:07.60 | 41237 | 59821
4 | 13:17.47 | 4:49.50 | 59822 | 81546
5 | 18:07.22 | 4:18.10 | 81547 | 100906
6 | 22:25.32 | 5:31.05 | 100907 | 125736
7 | 27:56.37 | 4:18.03 | 125737 | 145089
8 | 32:14.40 | 6:19.20 | 145090 | 173534
9 | 38:33.60 | 4:41.50 | 173535 | 194659
10 | 43:15.35 | 4:57.45 | 194660 | 216979
11 | 48:13.05 | 11:26.42 | 216980 | 268471
12 | 59:39.47 | 3:56.58 | 268472 | 286229
13 | 63:36.30 | 3:59.00 | 286230 | 304154


Range status and errors

Selected range

Filename C:\mm\Sheryl Crow\1998 - The Globe Sessions [POCM-1253]\Sheryl Crow - The Globe Sessions.wav

Peak level 100.0 %
Extraction speed 3.5 X
Range quality 99.9 %
Test CRC 61B5F6F4
Copy CRC 61B5F6F4
Copy OK

No errors occurred


AccurateRip summary

Track 1 accurately ripped (confidence 6) [475733C3] (AR v2)
Track 2 accurately ripped (confidence 6) [9C1BCF57] (AR v2)
Track 3 accurately ripped (confidence 6) [817C3738] (AR v2)
Track 4 accurately ripped (confidence 6) [F1C9A4D3] (AR v2)
Track 5 accurately ripped (confidence 6) [EBDAA9E0] (AR v2)
Track 6 accurately ripped (confidence 6) [844469E0] (AR v2)
Track 7 accurately ripped (confidence 6) [29B0546F] (AR v2)
Track 8 accurately ripped (confidence 5) [DBD612B3] (AR v2)
Track 9 accurately ripped (confidence 6) [5CA2F454] (AR v2)
Track 10 accurately ripped (confidence 5) [26674FD2] (AR v2)
Track 11 accurately ripped (confidence 6) [0632331C] (AR v2)
Track 12 accurately ripped (confidence 6) [6CD88F9A] (AR v2)
Track 13 accurately ripped (confidence 5) [A9D1C6C4] (AR v2)

All tracks accurately ripped

End of status report
AUDIOCHECKER v2.0 beta (build 457) - by Dester - [email protected]
~~~~~~~~~~~~~~~~~~~~~~~~~~~~~~~~~~
-=== НЕ РЕДАКТИРУЙТЕ ЭТОТ ФАЙЛ! ===-

Путь: ...\1998 - The Globe Sessions [POCM-1253]

1 -=- Sheryl Crow - The Globe Sessions.flac -=- CDDA (100%)

85646212



Третий студийник, получил Grammy в 1999 году в номинациях Best Rock Album и Best Engineered Non-Classical Album.
 
Последнее редактирование:

sergych

Ёшкин кот
VIP
Сообщения
2,236
Реакции
8,407
2010 - 100 Miles From Memphis


2010 - 100 Miles From Memphis




Исполнитель/Artist: Sheryl Crow
Альбом/Album: 100 Miles From Memphis
Год/Year: 2010
Жанр/Genre: Rock, Folk Rock, Pop Rock, Country, R'n'B, Soul
Страна/Country: Соединённые Штаты
Рекорд-лейбл/Record label: A&M Records
Номер в каталоге/Catalogue #: B0014507-02
Формат/Format: Free Lossless Audio Codec (*.flac)
Качество/Quality: Lossless
Тип рипа/RIP Type: image+.cue
Продолжительность/Length: 00:59:36
Источник/Source: Собственный рип
Размер/Size: 479.6 MB

Сканы в комплекте

01. Our Love Is Fading [0:06:21.12]
02. Eye To Eye [0:05:33.23]
03. Sign Your Name [0:05:36.68]
04. Summer Day [0:04:29.67]
05. Long Road Home [0:04:12.69]
06. Say What You Want [0:04:48.02]
07. Peaceful Feeling [0:04:01.57]
08. Stop [0:04:39.00]
09. Sideways [0:05:09.01]
10. 100 Miles From Memphis [0:04:59.27]
11. Roses And Moonlight [0:06:39.25]
12. I Want You Back [0:03:04.72]


Exact Audio Copy V1.0 beta 3 from 29. August 2011

EAC extraction logfile from 7. October 2015, 2:38

Sheryl Crow / 100 Miles From Memphis

Used drive : ATAPI iHAS124 D Adapter: 0 ID: 2

Read mode : Secure
Utilize accurate stream : Yes
Defeat audio cache : Yes
Make use of C2 pointers : No

Read offset correction : 6
Overread into Lead-In and Lead-Out : No
Fill up missing offset samples with silence : Yes
Delete leading and trailing silent blocks : No
Null samples used in CRC calculations : Yes
Used interface : Installed external ASPI interface

Used output format : User Defined Encoder
Selected bitrate : 1024 kBit/s
Quality : High
Add ID3 tag : No
Command line compressor : C:\Program Files (x86)\Exact Audio Copy\Flac\flac.exe
Additional command line options : -6 -V -T "ARTIST=%artist%" -T "TITLE=%title%" -T "ALBUM=%albumtitle%" -T "DATE=%year%" -T "TRACKNUMBER=%tracknr%" -T "GENRE=%genre%" -T "COMMENT=%comment%" -T "BAND=%albuminterpret%" -T "COMPOSER=%composer%" %haslyrics%--tag-from-file=LYRICS="%lyricsfile%"%haslyrics% -T "DISCNUMBER=%cdnumber%" -T "TOTALDISCS=%totalcds%" -T "TOTALTRACKS=%numtracks%" %hascover%--picture="%coverfile%"%hascover% %source% -o %dest%


TOC of the extracted CD

Track | Start | Length | Start sector | End sector
---------------------------------------------------------
1 | 0:00.00 | 6:21.12 | 0 | 28586
2 | 6:21.12 | 5:33.23 | 28587 | 53584
3 | 11:54.35 | 5:36.68 | 53585 | 78852
4 | 17:31.28 | 4:29.67 | 78853 | 99094
5 | 22:01.20 | 4:12.69 | 99095 | 118063
6 | 26:14.14 | 4:48.02 | 118064 | 139665
7 | 31:02.16 | 4:01.57 | 139666 | 157797
8 | 35:03.73 | 4:39.00 | 157798 | 178722
9 | 39:42.73 | 5:09.01 | 178723 | 201898
10 | 44:51.74 | 4:59.27 | 201899 | 224350
11 | 49:51.26 | 6:39.25 | 224351 | 254300
12 | 56:30.51 | 3:04.72 | 254301 | 268172


Range status and errors

Selected range

Filename C:\mm\Sheryl Crow\2010 - 100 Miles From Memphis [B0014507-02]\Sheryl Crow - 100 Miles From Memphis.wav

Peak level 98.1 %
Extraction speed 9.7 X
Range quality 99.9 %
Test CRC 1C71260C
Copy CRC 1C71260C
Copy OK

No errors occurred


AccurateRip summary

Track 1 accurately ripped (confidence 200) [805459DB] (AR v2)
Track 2 accurately ripped (confidence 200) [C4BFE6CA] (AR v2)
Track 3 accurately ripped (confidence 200) [7D7B70D8] (AR v2)
Track 4 accurately ripped (confidence 200) [76E3BF19] (AR v2)
Track 5 accurately ripped (confidence 200) [C645EC15] (AR v2)
Track 6 accurately ripped (confidence 200) [32B470E9] (AR v2)
Track 7 accurately ripped (confidence 200) [1FDBFE0B] (AR v2)
Track 8 accurately ripped (confidence 200) [B6D70085] (AR v2)
Track 9 accurately ripped (confidence 200) [30D723A5] (AR v2)
Track 10 accurately ripped (confidence 200) [482C7347] (AR v2)
Track 11 accurately ripped (confidence 200) [FF6FEC16] (AR v2)
Track 12 accurately ripped (confidence 200) [79592116] (AR v2)

All tracks accurately ripped

End of status report
AUDIOCHECKER v2.0 beta (build 457) - by Dester - [email protected]
~~~~~~~~~~~~~~~~~~~~~~~~~~~~~~~~~~
-=== НЕ РЕДАКТИРУЙТЕ ЭТОТ ФАЙЛ! ===-

Путь: ...\2010 - 100 Miles From Memphis [B0014507-02]

1 -=- Sheryl Crow - 100 Miles From Memphis.flac -=- CDDA (100%)

44722292



<iframe frameborder="0" style="border:none;width:450px;height:450px;" width="450" height="450" src=" ">Слушайте <a href=' '>100 Miles From Memphis</a> — <a href=' '>Sheryl Crow</a> на Яндекс.Музыке</iframe>​
 
Последнее редактирование:

sergych

Ёшкин кот
VIP
Сообщения
2,236
Реакции
8,407
1998 - The Globe Sessions


1998 - The Globe Sessions




Исполнитель/Artist: Sheryl Crow
Альбом/Album: The Globe Sessions
Год/Year: 1998
Жанр/Genre: Rock, blues rock, country rock
Страна/Country: Соединённые Штаты
Рекорд-лейбл/Record label: A&M Records / Polygram
Номер в каталоге/Catalogue #: 31454 0959 IN02
Формат/Format: Free Lossless Audio Codec (*.flac)
Качество/Quality: Lossless
Тип рипа/RIP Type: image+.cue
Продолжительность/Length: 00:59:33
Источник/Source: Собственный рип
Размер/Size: 447.4 MB

Сканы в комплекте

01. My Favorite Mistake [0:04:07.06]
02. There Goes The Neighborhood [0:05:01.65]
03. Riverwide [0:04:07.68]
04. It Don't Hurt [0:04:49.56]
05. Maybe That's Something [0:04:18.10]
06. Am I Getting Through - Part 1 & 2 [0:05:31.23]
07. Anything But Down [0:04:18.03]
08. The Difficult Kind [0:06:19.26]
09. Mississippi [0:04:41.56]
10. Members Only [0:04:57.51]
11. Crash And Burn [0:11:19.19]


Sheryl Crow - organ, acoustic guitar, bass, guitar, harmonica, percussion, electric guitar, keyboards, Hammond organ, tambourine, vocals, clavinet, 12 string guitar, National steel guitar, Wurlitzer, electric 12 string guitar, acoustic 12 string guitar
Dan McCarroll, Jim Bogios - drums
Avril Brown, Lorenza Ponce, Laura Seaton, Mary Rowell, Matthew Pierce, Maura Giannini, Mark Feldman - violin
Kathy Crow - vocals
Michael Davis - trombone
Mitchell Froom - clavinet
Lisa Germano - violin, autoharp
Jimmie Haskell - conductor
Bobby Keys - alto saxophone, baritone saxophone, tenor saxophone
Greg Leisz - pedal steel, banjo
Val McCallum - guitar, electric guitar
Wendy Melvoin - bass, guitar
Dan Rothchild - bass, double bass
Jane Scarpantoni, Garo Yellin, Mary Wooten, Michelle Kinney - cello
Kent Smith - trumpet
Tim Smith - acoustic guitar, bass, electric guitar
Benmont Tench - organ, piano, Hammond organ, chamberlin
Jeff Trott - acoustic guitar, bass, guitar, electric guitar, 12 string guitar, Moog synthesizer, slide guitar, tremolo guitar, acoustic 12 string guitar
Gregg Williams - percussion, drums, tambourine
Todd Wolfe - electric guitar
Exact Audio Copy V1.1 from 23. June 2015

EAC extraction logfile from 9. March 2016, 20:06

Sheryl Crow / The Globe Sessions

Used drive : ATAPI iHAS124 D Adapter: 0 ID: 2

Read mode : Secure
Utilize accurate stream : Yes
Defeat audio cache : Yes
Make use of C2 pointers : No

Read offset correction : 6
Overread into Lead-In and Lead-Out : No
Fill up missing offset samples with silence : Yes
Delete leading and trailing silent blocks : No
Null samples used in CRC calculations : Yes
Used interface : Installed external ASPI interface

Used output format : User Defined Encoder
Selected bitrate : 1024 kBit/s
Quality : High
Add ID3 tag : Yes
Command line compressor : C:\Program Files (x86)\Exact Audio Copy\Flac\flac.exe
Additional command line options : -6 -V -T "ARTIST=%artist%" -T "TITLE=%title%" -T "ALBUM=%albumtitle%" -T "DATE=%year%" -T "TRACKNUMBER=%tracknr%" -T "GENRE=%genre%" -T "COMMENT=%comment%" -T "BAND=%albuminterpret%" -T "COMPOSER=%composer%" %haslyrics%--tag-from-file=LYRICS="%lyricsfile%"%haslyrics% -T "DISCNUMBER=%cdnumber%" -T "TOTALDISCS=%totalcds%" -T "TOTALTRACKS=%numtracks%" %hascover%--picture="%coverfile%"%hascover% %source% -o %dest%


TOC of the extracted CD

Track | Start | Length | Start sector | End sector
---------------------------------------------------------
1 | 0:00.00 | 4:07.06 | 0 | 18530
2 | 4:07.06 | 5:01.65 | 18531 | 41170
3 | 9:08.71 | 4:07.68 | 41171 | 59763
4 | 13:16.64 | 4:49.56 | 59764 | 81494
5 | 18:06.45 | 4:18.10 | 81495 | 100854
6 | 22:24.55 | 5:31.23 | 100855 | 125702
7 | 27:56.03 | 4:18.03 | 125703 | 145055
8 | 32:14.06 | 6:19.26 | 145056 | 173506
9 | 38:33.32 | 4:41.56 | 173507 | 194637
10 | 43:15.13 | 4:57.51 | 194638 | 216963
11 | 48:12.64 | 11:19.19 | 216964 | 267907
12 | 62:04.08 | 10:43.34 | 279308 | 327566


Range status and errors

Selected range

Filename C:\mm\Sheryl Crow\1998 - The Globe Sessions [31454 0959 IN02]\Sheryl Crow - The Globe Sessions.wav

Peak level 100.0 %
Extraction speed 9.9 X
Range quality 100.0 %
Test CRC B941BC90
Copy CRC B941BC90
Copy OK

No errors occurred


AccurateRip summary

Track 1 accurately ripped (confidence 12) [3EF7C015] (AR v2)
Track 2 accurately ripped (confidence 13) [3EFA31F9] (AR v2)
Track 3 accurately ripped (confidence 13) [89A6E983] (AR v2)
Track 4 accurately ripped (confidence 13) [2A05A409] (AR v2)
Track 5 accurately ripped (confidence 13) [B24689AD] (AR v2)
Track 6 accurately ripped (confidence 13) [3E10FB71] (AR v2)
Track 7 accurately ripped (confidence 13) [83E9D92C] (AR v2)
Track 8 accurately ripped (confidence 13) [C7C2A299] (AR v2)
Track 9 accurately ripped (confidence 13) [A19E1F46] (AR v2)
Track 10 accurately ripped (confidence 13) [1541FF3B] (AR v2)
Track 11 accurately ripped (confidence 12) [FA859228] (AR v2)

All tracks accurately ripped

End of status report
AUDIOCHECKER v2.0 beta (build 457) - by Dester - [email protected]
~~~~~~~~~~~~~~~~~~~~~~~~~~~~~~~~~~
-=== НЕ РЕДАКТИРУЙТЕ ЭТОТ ФАЙЛ! ===-

Путь: ...\1998 - The Globe Sessions [31454 0959 IN02]

1 -=- Sheryl Crow - The Globe Sessions.flac -=- CDDA (100%)

85646212



<iframe frameborder="0" style="border:none;width:450px;height:450px;" width="450" height="450" src=" ">Слушайте <a href=' '>Sheryl Crow - 1998 - The Globe Sessions [31454 0959 IN02]</a> — <a href=' '>SherylCrow.flac</a> на Яндекс.Музыке</iframe>​
 
Последнее редактирование:

sergych

Ёшкин кот
VIP
Сообщения
2,236
Реакции
8,407
1996(1997) - Sheryl Crow {Special Edition}


1996(1997) - Sheryl Crow {Special Edition}




Исполнитель/Artist: Sheryl Crow
Альбом/Album: Sheryl Crow {Special Edition}
Год/Year: 1996
Ремастеринг/Remaster: 1997
Жанр/Genre: Rock, blues rock, country rock
Страна/Country: Германия
Рекорд-лейбл/Record label: A&M Records
Номер в каталоге/Catalogue #: 540 719 2
Формат/Format: Free Lossless Audio Codec (*.flac)
Качество/Quality: Lossless
Тип рипа/RIP Type: image+.cue
Продолжительность/Length: 01:39:33
Источник/Source: Собственный рип
Размер/Size: 677.1 MB

Сканы в комплекте

01. Maybe Angels [0:04:54.17]
02. A Change Would Do You Good [0:03:49.65]
03. Home [0:04:50.55]
04. Sweet Rosalyn [0:03:59.73]
05. If It Makes You Happy [0:05:23.30]
06. Redemption Day [0:04:26.32]
07. Hard To Make A Stand [0:03:07.55]
08. Everyday Is a Winding Road [0:04:17.18]
09. Love Is a Good Thing [0:04:42.55]
10. Oh Marie [0:03:31.52]
11. Superstar [0:04:57.60]
12. The Book [0:04:44.38]
13. Ordinary Morning [0:03:58.22]
14. Sad Sad World [0:04:07.60]
15. Hard to Make a Stand (alternative version) [0:03:30.15]
01. If It Makes You Happy [0:05:34.12]
02. Leaving Las Vegas [0:06:43.70]
03. Hard To Make A Stand [0:04:23.23]
04. Can't Cry Anymore [0:05:32.70]
05. Everyday Is A Winding Road [0:04:59.40]
06. On The Outside [0:07:56.37]


Exact Audio Copy V1.1 from 23. June 2015

EAC extraction logfile from 28. July 2016, 22:33

Sheryl Crow / Sheryl Crow (Special Edition) (CD1)

Used drive : PLEXTOR DVDR PX-716A Adapter: 1 ID: 0

Read mode : Secure
Utilize accurate stream : Yes
Defeat audio cache : Yes
Make use of C2 pointers : No

Read offset correction : 30
Overread into Lead-In and Lead-Out : No
Fill up missing offset samples with silence : Yes
Delete leading and trailing silent blocks : No
Null samples used in CRC calculations : Yes
Used interface : Native Win32 interface for Win NT & 2000

Used output format : User Defined Encoder
Selected bitrate : 1024 kBit/s
Quality : High
Add ID3 tag : No
Command line compressor : C:\Program Files (x86)\Exact Audio Copy\FLAC\FLAC.EXE
Additional command line options : -6 -V -T "ARTIST=%artist%" -T "TITLE=%title%" -T "ALBUM=%albumtitle%" -T "DATE=%year%" -T "TRACKNUMBER=%tracknr%" -T "GENRE=%genre%" -T "COMMENT=%comment%" -T "BAND=%albuminterpret%" -T "ALBUMARTIST=%albuminterpret%" -T "COMPOSER=%composer%" %haslyrics%--tag-from-file=LYRICS="%lyricsfile%"%haslyrics% -T "DISCNUMBER=%cdnumber%" -T "TOTALDISCS=%totalcds%" -T "TOTALTRACKS=%numtracks%" %hascover%--picture="%coverfile%"%hascover% %source% -o %dest%


TOC of the extracted CD

Track | Start | Length | Start sector | End sector
---------------------------------------------------------
1 | 0:00.00 | 4:54.17 | 0 | 22066
2 | 4:54.17 | 3:49.65 | 22067 | 39306
3 | 8:44.07 | 4:50.55 | 39307 | 61111
4 | 13:34.62 | 3:59.73 | 61112 | 79109
5 | 17:34.60 | 5:23.30 | 79110 | 103364
6 | 22:58.15 | 4:26.32 | 103365 | 123346
7 | 27:24.47 | 3:07.55 | 123347 | 137426
8 | 30:32.27 | 4:17.18 | 137427 | 156719
9 | 34:49.45 | 4:42.55 | 156720 | 177924
10 | 39:32.25 | 3:31.52 | 177925 | 193801
11 | 43:04.02 | 4:57.60 | 193802 | 216136
12 | 48:01.62 | 4:44.38 | 216137 | 237474
13 | 52:46.25 | 3:58.22 | 237475 | 255346
14 | 56:44.47 | 4:07.60 | 255347 | 273931
15 | 60:52.32 | 3:30.15 | 273932 | 289696


Range status and errors

Selected range

Filename C:\mm\Sheryl Crow\1996 - Sheryl Crow {Special Edition} [540 719 2]\Sheryl Crow - Sheryl Crow (Special Edition) (CD1).wav

Peak level 99.4 %
Extraction speed 13.4 X
Range quality 100.0 %
Test CRC 4BFF8747
Copy CRC 4BFF8747
Copy OK

No errors occurred


AccurateRip summary

Track 1 accurately ripped (confidence 200) [47E92F0D] (AR v2)
Track 2 accurately ripped (confidence 200) [1707585A] (AR v2)
Track 3 accurately ripped (confidence 200) [00C52A3D] (AR v2)
Track 4 accurately ripped (confidence 200) [8AE9FBDA] (AR v2)
Track 5 accurately ripped (confidence 200) [EF4941DE] (AR v2)
Track 6 accurately ripped (confidence 200) [E3E33CC0] (AR v2)
Track 7 accurately ripped (confidence 200) [9D4D384B] (AR v2)
Track 8 accurately ripped (confidence 200) [03E72152] (AR v2)
Track 9 accurately ripped (confidence 200) [9847A75D] (AR v2)
Track 10 accurately ripped (confidence 200) [E3A7445E] (AR v2)
Track 11 accurately ripped (confidence 200) [77C0B230] (AR v2)
Track 12 accurately ripped (confidence 200) [73EA0010] (AR v2)
Track 13 accurately ripped (confidence 200) [26A010C4] (AR v2)
Track 14 accurately ripped (confidence 200) [C4AC1C03] (AR v2)
Track 15 accurately ripped (confidence 200) [15D113E0] (AR v2)

All tracks accurately ripped

End of status report

---- CUETools DB Plugin V2.1.6

[CTDB TOCID: 1WTKYf6whM4Ljuho13qTF8VQf9Y-] found
Submit result: 1WTKYf6whM4Ljuho13qTF8VQf9Y- has been confirmed
Track | CTDB Status
1 | (457/471) Accurately ripped, or (10/471) differs in 1470 samples @03:16:50-03:16:51
2 | (469/471) Accurately ripped
3 | (469/471) Accurately ripped
4 | (467/471) Accurately ripped
5 | (469/471) Accurately ripped
6 | (466/471) Accurately ripped
7 | (467/471) Accurately ripped
8 | (465/471) Accurately ripped
9 | (465/471) Accurately ripped
10 | (462/471) Accurately ripped
11 | (464/471) Accurately ripped
12 | (457/471) Accurately ripped
13 | (465/471) Accurately ripped
14 | (464/471) Accurately ripped
15 | (465/471) Accurately ripped
Exact Audio Copy V1.1 from 23. June 2015

EAC extraction logfile from 28. July 2016, 23:00

Sheryl Crow / Sheryl Crow (Special Edition) (CD2)

Used drive : PLEXTOR DVDR PX-716A Adapter: 1 ID: 0

Read mode : Secure
Utilize accurate stream : Yes
Defeat audio cache : Yes
Make use of C2 pointers : No

Read offset correction : 30
Overread into Lead-In and Lead-Out : No
Fill up missing offset samples with silence : Yes
Delete leading and trailing silent blocks : No
Null samples used in CRC calculations : Yes
Used interface : Native Win32 interface for Win NT & 2000

Used output format : User Defined Encoder
Selected bitrate : 1024 kBit/s
Quality : High
Add ID3 tag : No
Command line compressor : C:\Program Files (x86)\Exact Audio Copy\FLAC\FLAC.EXE
Additional command line options : -6 -V -T "ARTIST=%artist%" -T "TITLE=%title%" -T "ALBUM=%albumtitle%" -T "DATE=%year%" -T "TRACKNUMBER=%tracknr%" -T "GENRE=%genre%" -T "COMMENT=%comment%" -T "BAND=%albuminterpret%" -T "ALBUMARTIST=%albuminterpret%" -T "COMPOSER=%composer%" %haslyrics%--tag-from-file=LYRICS="%lyricsfile%"%haslyrics% -T "DISCNUMBER=%cdnumber%" -T "TOTALDISCS=%totalcds%" -T "TOTALTRACKS=%numtracks%" %hascover%--picture="%coverfile%"%hascover% %source% -o %dest%


TOC of the extracted CD

Track | Start | Length | Start sector | End sector
---------------------------------------------------------
1 | 0:00.00 | 5:34.12 | 0 | 25061
2 | 5:34.12 | 6:43.70 | 25062 | 55356
3 | 12:18.07 | 4:23.23 | 55357 | 75104
4 | 16:41.30 | 5:32.70 | 75105 | 100074
5 | 22:14.25 | 4:59.40 | 100075 | 122539
6 | 27:13.65 | 7:56.37 | 122540 | 158276


Range status and errors

Selected range

Filename C:\mm\Sheryl Crow\1996 - Sheryl Crow {Special Edition} [540 719 2]\Sheryl Crow - Sheryl Crow (Special Edition) (CD2).wav

Peak level 99.8 %
Extraction speed 11.2 X
Range quality 100.0 %
Test CRC 6B828641
Copy CRC 6B828641
Copy OK

No errors occurred


AccurateRip summary

Track 1 accurately ripped (confidence 49) [20CDBB28] (AR v2)
Track 2 accurately ripped (confidence 49) [78C3BDE6] (AR v2)
Track 3 accurately ripped (confidence 49) [1C7D084C] (AR v2)
Track 4 accurately ripped (confidence 49) [1E7C36C1] (AR v2)
Track 5 accurately ripped (confidence 49) [291D44AB] (AR v2)
Track 6 accurately ripped (confidence 49) [3B2D1921] (AR v2)

All tracks accurately ripped

End of status report

---- CUETools DB Plugin V2.1.6

[CTDB TOCID: Ddt5_zfcvUBvG4CQAvBYTnlYQ.Q-] found
Submit result: Ddt5_zfcvUBvG4CQAvBYTnlYQ.Q- has been confirmed
Track | CTDB Status
1 | (51/51) Accurately ripped
2 | (51/51) Accurately ripped
3 | (51/51) Accurately ripped
4 | (51/51) Accurately ripped
5 | (51/51) Accurately ripped
6 | (51/51) Accurately ripped
AUDIOCHECKER v2.0 beta (build 457) - by Dester - [email protected]
~~~~~~~~~~~~~~~~~~~~~~~~~~~~~~~~~~
-=== НЕ РЕДАКТИРУЙТЕ ЭТОТ ФАЙЛ! ===-

Путь: ...\1996 - Sheryl Crow {Special Edition} [540 719 2]

1 -=- Sheryl Crow - Sheryl Crow (Special Edition) (CD1).flac -=- CDDA (100%)
2 -=- Sheryl Crow - Sheryl Crow (Special Edition) (CD2).flac -=- MPEG (95%)

Сводка 52,50% CDDA

2712708




<iframe frameborder="0" style="border:none;width:450px;height:450px;" width="450" height="450" src=" ">Слушайте <a href=' '>Sheryl Crow</a> — <a href=' '>Sheryl Crow</a> на Яндекс.Музыке</iframe>​
 
Последнее редактирование:

sergych

Ёшкин кот
VIP
Сообщения
2,236
Реакции
8,407
2013 - Feels Like Home


2013 - Feels Like Home




Исполнитель/Artist: Sheryl Crow
Альбом/Album: Feels Like Home
Год/Year: 2013
Жанр/Genre: Country, country rock, southern rock, traditional country
Страна/Country: Германия
Рекорд-лейбл/Record label: Sea Gayle Music
Номер в каталоге/Catalogue #: 9362-49433-1
Формат/Format: Free Lossless Audio Codec (*.flac)
Качество/Quality: Lossless
Тип рипа/RIP Type: image+.cue
Продолжительность/Length: 00:44:09
Источник/Source: Собственный рип
Размер/Size: 351 MB

Сканы в комплекте

01. Shotgun [0:03:14.50]
02. Easy [0:04:12.44]
03. Give It To Me [0:03:57.72]
04. We Ought Be Drinkin' [0:03:52.07]
05. Callin' Me When I'm Lonely [0:03:25.29]
06. Waterproof Mascara [0:03:32.34]
07. Crazy Ain't Original [0:03:17.53]
08. Nobody's Business [0:03:34.55]
09. Homesick [0:04:05.26]
10. Homecoming Queen [0:03:24.46]
11. Best Of Times [0:03:19.24]
12. Stay At Home Mother [0:04:11.67]


Sheryl Crow - lead vocals, acoustic guitar, background vocals
Perry Coleman - vocals
Ashley Monroe, Tania Hancheroff, Wes Hightower - background vocals
Samuel Bacco - vibraphone
J.T. Corenflos, Jedd Hughes, Richard Bennett, Tom Bukovac - electric guitar
Brad Paisley - slide guitar
Dan Dugmore, Paul Franklin - pedal steel
Eric Darken - percussion
David Davidson, Karen Winkelmann, Pamela Sixfin, Wei Tsun Chang - violin
Chris Farrell - viola
Tony Harrell - keyboards
Aubrey Haynie - fiddle, mandolin
Jim Hoke - harmonica
Charlie Judge - accordion, keyboards, string arrangements
Anthony LaMarchina, Sarighani Reist - cello
Greg Morrow - drums
Ilya Toshinsky - dobro, mandolin
Jeff Trott - acoustic guitar, electric guitar, lap steel
Glenn Worf - bass
Exact Audio Copy V1.2 from 12. August 2016

EAC extraction logfile from 1. March 2017, 22:06

Sheryl Crow / Feels Like Home

Used drive : PLEXTOR DVDR PX-716A Adapter: 1 ID: 0

Read mode : Secure
Utilize accurate stream : Yes
Defeat audio cache : Yes
Make use of C2 pointers : No

Read offset correction : 30
Overread into Lead-In and Lead-Out : No
Fill up missing offset samples with silence : Yes
Delete leading and trailing silent blocks : No
Null samples used in CRC calculations : Yes
Used interface : Native Win32 interface for Win NT & 2000

Used output format : User Defined Encoder
Selected bitrate : 1024 kBit/s
Quality : High
Add ID3 tag : No
Command line compressor : C:\Program Files (x86)\Exact Audio Copy\FLAC\FLAC.EXE
Additional command line options : -6 -V -T "ARTIST=%artist%" -T "TITLE=%title%" -T "ALBUM=%albumtitle%" -T "DATE=%year%" -T "TRACKNUMBER=%tracknr%" -T "GENRE=%genre%" -T "COMMENT=%comment%" -T "BAND=%albuminterpret%" -T "ALBUMARTIST=%albuminterpret%" -T "COMPOSER=%composer%" %haslyrics%--tag-from-file=LYRICS="%lyricsfile%"%haslyrics% -T "DISCNUMBER=%cdnumber%" -T "TOTALDISCS=%totalcds%" -T "TOTALTRACKS=%numtracks%" %hascover%--picture="%coverfile%"%hascover% %source% -o %dest%


TOC of the extracted CD

Track | Start | Length | Start sector | End sector
---------------------------------------------------------
1 | 0:00.00 | 3:14.50 | 0 | 14599
2 | 3:14.50 | 4:12.44 | 14600 | 33543
3 | 7:27.19 | 3:57.72 | 33544 | 51390
4 | 11:25.16 | 3:52.07 | 51391 | 68797
5 | 15:17.23 | 3:25.29 | 68798 | 84201
6 | 18:42.52 | 3:32.34 | 84202 | 100135
7 | 22:15.11 | 3:17.53 | 100136 | 114963
8 | 25:32.64 | 3:34.55 | 114964 | 131068
9 | 29:07.44 | 4:05.26 | 131069 | 149469
10 | 33:12.70 | 3:24.46 | 149470 | 164815
11 | 36:37.41 | 3:19.24 | 164816 | 179764
12 | 39:56.65 | 4:11.67 | 179765 | 198656


Range status and errors

Selected range

Filename C:\mm\Sheryl Crow\2013 - Feels Like Home [9362-49433-1]\Sheryl Crow - Feels Like Home.wav

Peak level 99.9 %
Extraction speed 3.8 X
Range quality 100.0 %
Test CRC 91A169A6
Copy CRC 91A169A6
Copy OK

No errors occurred


AccurateRip summary

Track 1 accurately ripped (confidence 37) [9B8C1418] (AR v2)
Track 2 accurately ripped (confidence 37) [99806DF4] (AR v2)
Track 3 accurately ripped (confidence 37) [0B48D5FF] (AR v2)
Track 4 accurately ripped (confidence 37) [BDA57F51] (AR v2)
Track 5 accurately ripped (confidence 38) [63CAFB10] (AR v2)
Track 6 accurately ripped (confidence 37) [DD36BC49] (AR v2)
Track 7 accurately ripped (confidence 37) [4AFA5CF6] (AR v2)
Track 8 accurately ripped (confidence 36) [01A8CD51] (AR v2)
Track 9 accurately ripped (confidence 37) [89B0423F] (AR v2)
Track 10 accurately ripped (confidence 37) [6A3D85CD] (AR v2)
Track 11 accurately ripped (confidence 37) [717BC2B9] (AR v2)
Track 12 accurately ripped (confidence 36) [FC8FF9B3] (AR v2)

All tracks accurately ripped

End of status report

---- CUETools DB Plugin V2.1.6

[CTDB TOCID: sEt5bNt3fW2btQZ7HbG6bLfcXqk-] found
Submit result: already submitted
Track | CTDB Status
1 | (211/211) Accurately ripped
2 | (210/211) Accurately ripped
3 | (211/211) Accurately ripped
4 | (211/211) Accurately ripped
5 | (210/211) Accurately ripped
6 | (211/211) Accurately ripped
7 | (210/211) Accurately ripped
8 | (211/211) Accurately ripped
9 | (210/211) Accurately ripped
10 | (210/211) Accurately ripped
11 | (210/211) Accurately ripped
12 | (209/211) Accurately ripped
AUDIOCHECKER v2.0 beta (build 457) - by Dester - [email protected]
~~~~~~~~~~~~~~~~~~~~~~~~~~~~~~~~~~
-=== НЕ РЕДАКТИРУЙТЕ ЭТОТ ФАЙЛ! ===-

Путь: ...\2013 - Feels Like Home [9362-49433-1]

1 -=- Sheryl Crow - Feels Like Home.flac -=- CDDA (99%)

110666100



<iframe frameborder="0" style="border:none;width:450px;height:450px;" width="450" height="450" src=" ">Слушайте <a href=' '>Feels Like Home</a> — <a href=' '>Sheryl Crow</a> на Яндекс.Музыке</iframe>​
 
Последнее редактирование:
Сверху